[ create a new paste ] login | about

Link: http://codepad.org/elG1WFtu    [ raw code | fork ]

Plain Text, pasted on Apr 11:
foobar2000 1.3.17 / Dynamic Range Meter 1.1.1
log date: 2018-04-11 10:34:48

--------------------------------------------------------------------------------
Analyzed: RICKIE LEE JONES / PIRATES
--------------------------------------------------------------------------------

DR         Peak         RMS     Duration Track
--------------------------------------------------------------------------------
DR15      -6.00 dB   -25.98 dB      5:02 01-We Belong Together
DR13      -6.34 dB   -23.69 dB      6:21 02-Living It Up
DR14      -5.74 dB   -25.96 dB      3:37 03-Skeletons
DR14      -6.03 dB   -23.76 dB      5:15 04-Woody And Dutch On The Slow Train To Peking
DR13      -5.93 dB   -23.40 dB      3:53 05-Pirates (So Long Lonely Avenue)
DR14      -5.62 dB   -23.89 dB      4:17 06-A Lucky Guy
DR17      -5.94 dB   -27.28 dB      7:54 07-Traces Of The Western Slopes
DR14      -6.00 dB   -25.47 dB      2:21 08-The Returns
--------------------------------------------------------------------------------

Number of tracks:  8
Official DR value: DR14

Samplerate:        2822400 Hz / PCM Samplerate: 176400 Hz
Channels:          2
Bits per sample:   1
Bitrate:           5645 kbps
Codec:             DSD64
================================================================================




Create a new paste based on this one


Comments: