[ create a new paste ] login | about

Link: http://codepad.org/envlQYoC    [ raw code | fork ]

Plain Text, pasted on May 28:
foobar2000 1.3.17 / Dynamic Range Meter 1.1.1
log date: 2018-05-27 21:21:57

--------------------------------------------------------------------------------
Analyzed: Hugo Montenegro / Rocket Man Mammy Blue
--------------------------------------------------------------------------------

DR         Peak         RMS     Duration Track
--------------------------------------------------------------------------------
DR11      -0.93 dB   -14.80 dB      3:24 01-Blastoff
DR12      -1.51 dB   -17.74 dB      4:02 02-Rocket Man
DR12      -1.22 dB   -18.02 dB      3:33 03-The Bitch Is Back
DR13      -3.43 dB   -19.11 dB      3:15 04-Goodbye Yellow Brick Road
DR12      -1.32 dB   -17.16 dB      4:04 05-Philadelphia Freedom
DR12      -0.85 dB   -16.93 dB      3:23 06-Take Me To The Pilot
DR13      -1.98 dB   -19.93 dB      4:05 07-Your Song
DR13      -1.03 dB   -17.78 dB      2:52 08-Lowdown Hoedown
DR14      -1.89 dB   -19.48 dB      2:44 09-Daniel
DR12      -2.55 dB   -19.55 dB      3:07 10-Lucy In The Sky With Diamonds
DR12      -2.72 dB   -17.89 dB      1:04 11-Splashdown
DR11      -1.90 dB   -16.97 dB      2:50 12-All I Can Do
DR13      -1.72 dB   -19.56 dB      3:16 13-Uncle Albert And Admiral Halsey
DR14      -1.84 dB   -20.69 dB      3:01 14-Superstar
DR13      -2.82 dB   -19.65 dB      2:25 15-If I Were A Rich Man  Fiddler On The Roof
DR12      -2.58 dB   -21.00 dB      2:38 16-Mammy Blue
DR11      -3.58 dB   -18.62 dB      3:11 17-I Feel The Earth Move
DR13      -0.95 dB   -17.90 dB      2:44 18-Peace Train
DR14      -0.01 dB   -19.30 dB      3:58 19-The Night They Drove Old Dixie Down
DR12      -2.75 dB   -20.08 dB      2:56 20-Zingaro
DR11      -2.00 dB   -16.99 dB      3:28 21-Yo Yo
DR13      -1.66 dB   -19.26 dB      4:45 22-Movin On
--------------------------------------------------------------------------------

Number of tracks:  22
Official DR value: DR13

Samplerate:        88200 Hz
Channels:          4
Bits per sample:   24
Bitrate:           5207 kbps
Codec:             FLAC
================================================================================




Create a new paste based on this one


Comments: