[ create a new paste ] login | about

Link: http://codepad.org/esqHVl6l    [ raw code | fork ]

Plain Text, pasted on Oct 2:
foobar2000 1.3.17 / Dynamic Range Meter 1.1.1
log date: 2018-10-02 09:52:42

--------------------------------------------------------------------------------
Analyzed: Led Zeppelin / Led Zeppelin x Led Zeppelin
--------------------------------------------------------------------------------

DR         Peak         RMS     Duration Track
--------------------------------------------------------------------------------
DR9       -0.01 dB   -10.53 dB      2:26 01-Immigrant Song
DR9       -0.20 dB   -10.75 dB      3:43 02-Rock And Roll (Sunset Sound Mix)
DR9       -0.01 dB   -13.18 dB      5:35 03-Whole Lotta Love
DR10      -0.03 dB   -12.51 dB      4:55 04-Black Dog
DR10      -0.16 dB   -15.23 dB      8:03 05-Stairway To Heaven
DR8       -1.26 dB   -11.52 dB      2:46 06-Good Times Bad Times
DR9       -2.30 dB   -15.72 dB      3:32 07-Going To California
DR10      -0.43 dB   -14.26 dB      4:34 08-Ramble On
DR10      -0.01 dB   -12.37 dB      8:37 09-Kashmir
DR10      -0.01 dB   -14.02 dB      4:51 10-Over The Hills And Far Away
DR10      -0.10 dB   -12.12 dB      3:55 11-Hey, Hey, What Can I Do
DR11      -0.01 dB   -12.14 dB      4:23 12-D'yer Mak'er
DR9       -0.20 dB   -10.67 dB      7:09 13-When The Levee Breaks
DR10      -0.01 dB   -12.07 dB      5:54 14-All My Love
DR9       -1.44 dB   -13.66 dB      6:43 15-Babe I'm Gonna Leave You
DR9       -0.03 dB   -10.93 dB      4:14 16-Heartbreaker
DR8       -1.10 dB   -12.22 dB      6:29 17-Dazed And Confused
DR10      -0.46 dB   -11.64 dB      5:29 18-The Song Remains The Same
DR10      -0.01 dB   -12.36 dB      6:11 19-Fool In The Rain
DR10      -0.01 dB   -12.27 dB      4:31 20-The Ocean
DR9       -0.01 dB   -12.81 dB      4:46 21-What Is And What Should Never Be
DR11      -0.12 dB   -12.82 dB      4:05 22-Houses Of The Holy
DR10      -0.06 dB   -12.23 dB      7:24 23-Since I've Been Loving You
DR8       -0.30 dB   -10.30 dB      4:39 24-Misty Mountain Hop
DR8       -1.21 dB   -10.95 dB      2:30 25-Communication Breakdown
DR10      -0.01 dB   -14.99 dB      4:49 26-Thank You
DR10      -0.01 dB   -14.39 dB      7:03 27-No Quarter
DR9       -0.01 dB   -10.62 dB      5:37 28-Trampled Under Foot
DR10      -0.61 dB   -13.38 dB      4:43 29-I Can't Quit You Baby
DR10      -0.01 dB   -11.70 dB      6:53 30-In The Evening
--------------------------------------------------------------------------------

Number of tracks:  30
Official DR value: DR9

Samplerate:        96000 Hz
Channels:          2
Bits per sample:   24
Bitrate:           3294 kbps
Codec:             FLAC
================================================================================




Create a new paste based on this one


Comments: