[ create a new paste ] login | about

Link: http://codepad.org/euYdLVt7    [ raw code | fork ]

Plain Text, pasted on May 8:
foobar2000 1.4.1 / Dynamic Range Meter 1.1.1
log date: 2019-05-07 19:24:37

--------------------------------------------------------------------------------
Analyzed: ? / ?
--------------------------------------------------------------------------------

DR         Peak         RMS     Duration Track
--------------------------------------------------------------------------------
DR10      -6.06 dB   -18.47 dB      2:58 01-ON THE CORNER
DR9       -6.70 dB   -17.47 dB      1:31 02-NEW YORK GIRL
DR11      -6.12 dB   -19.67 dB      6:42 03-THINKIN' ONE THING AND DOIN' ANOTHER
DR11      -5.35 dB   -18.94 dB      8:45 04-VOTE FOR MILES
DR13      -5.38 dB   -20.46 dB      5:16 05-BLACK SATIN
DR13      -1.32 dB   -18.26 dB      6:09 06-ONE AND ONE
DR12      -2.97 dB   -17.37 dB     16:06 07-HELEN BUTTE
DR14      -3.47 dB   -20.03 dB      7:12 08-MR. FREEDOM X
--------------------------------------------------------------------------------

Number of tracks:  8
Official DR value: DR12

Samplerate:        2822400 Hz / PCM Samplerate: 176400 Hz
Channels:          2
Bits per sample:   1
Bitrate:           5645 kbps
Codec:             DSD64
================================================================================




Create a new paste based on this one


Comments: