[ create a new paste ] login | about

Link: http://codepad.org/ezHDdk2R    [ raw code | fork ]

Plain Text, pasted on Dec 26:
foobar2000 1.3.16 / Dynamic Range Meter 1.1.1
log date: 2017-12-25 17:44:50

--------------------------------------------------------------------------------
Analyzed: Creedence Clearwater Revival / The Concert
--------------------------------------------------------------------------------

DR         Peak         RMS     Duration Track
--------------------------------------------------------------------------------
DR11      -0.34 dB   -12.99 dB      5:16 01-Born On The Bayou
DR10      -0.40 dB   -11.70 dB      3:00 02-Green River
DR10      -0.37 dB   -11.98 dB      4:06 03-Tombstone Shadow
DR10      -0.41 dB   -11.85 dB      2:26 04-Don't Look Now (It Ain't You Or Me)
DR9       -0.35 dB   -11.17 dB      2:18 05-Travelin' Band
DR10      -0.39 dB   -11.83 dB      2:32 06-Who'll Stop The Rain
DR10      -0.39 dB   -11.18 dB      2:17 07-Bad Moon Rising
DR10      -0.38 dB   -11.17 dB      3:10 08-Proud Mary
DR9       -0.35 dB   -10.94 dB      2:22 09-Fortunate Son
DR9       -0.34 dB   -10.70 dB      2:37 10-Commotion
DR10      -0.43 dB   -12.72 dB      3:48 11-The Midnight Special
DR10      -0.36 dB   -11.93 dB      3:25 12-Night Time Is The Right Time
DR10      -0.35 dB   -11.57 dB      2:49 13-Down On The Corner
DR10      -0.32 dB   -11.11 dB      9:10 14-Keep On Chooglin'
--------------------------------------------------------------------------------

Number of tracks:  14
Official DR value: DR10

Samplerate:        88200 Hz
Channels:          2
Bits per sample:   24
Bitrate:           2777 kbps
Codec:             FLAC
================================================================================




Create a new paste based on this one


Comments: