[ create a new paste ] login | about

Link: http://codepad.org/f2jcfCi9    [ raw code | fork ]

Plain Text, pasted on Nov 2:
foobar2000 1.3.17 / Dynamic Range Meter 1.1.1
log date: 2018-11-01 20:21:43

--------------------------------------------------------------------------------
Analyzed: Steven Wilson, Ninet Tayeb / Home Invasion: In Concert At The Royal Albert Hall (Live) (1-3)
          Steven Wilson / Home Invasion: In Concert At The Royal Albert Hall (Live) (4-21)
--------------------------------------------------------------------------------

DR         Peak         RMS     Duration Track
--------------------------------------------------------------------------------
DR10      -1.30 dB   -16.95 dB      5:08 03-Pariah (Live)
DR10      -1.40 dB   -13.91 dB      6:17 07-People Who Eat Darkness (Live)
DR12      -6.42 dB   -22.27 dB      3:11 19-Blank Tapes (Live)
DR10      -9.85 dB   -26.17 dB      2:51 01-“Truth” (Intro) (Live)
DR10      -1.44 dB   -14.53 dB      4:12 02-Nowhere Now (Live)
DR10      -1.33 dB   -14.09 dB     11:02 04-Home Invasion / Regret #9 (Live)
DR10      -1.49 dB   -14.13 dB      5:32 05-The Creator Has A Mastertape (Live)
DR10      -1.40 dB   -17.40 dB      8:41 06-Refuge (Live)
DR11      -1.41 dB   -15.74 dB     13:54 08-Ancestral (Live)
DR12      -1.40 dB   -16.44 dB     13:51 09-Arriving Somewhere But Not Here (Live)
DR10      -1.41 dB   -14.46 dB      5:35 10-Permanating (Live)
DR10      -1.48 dB   -14.94 dB      7:13 11-Song Of I (Live)
DR12      -1.55 dB   -16.79 dB      4:09 12-Lazarus (Live)
DR11      -1.42 dB   -15.36 dB     11:22 13-Detonation (Live)
DR12      -1.44 dB   -15.54 dB      6:00 14-The Same Asylum As Before (Live)
DR12      -1.36 dB   -17.51 dB      6:33 15-Song Of Unborn (Live)
DR11      -1.54 dB   -14.11 dB      5:07 16-Vermillioncore (Live)
DR10      -1.51 dB   -14.36 dB      8:07 17-Sleep Together (Live)
DR12      -5.58 dB   -21.87 dB      3:58 18-Even Less (Live)
DR11      -1.50 dB   -15.21 dB      5:08 20-The Sound Of Muzak (Live)
DR13      -1.57 dB   -18.64 dB      8:31 21-The Raven That Refused To Sing (Live)
--------------------------------------------------------------------------------

Number of tracks:  21
Official DR value: DR11

Samplerate:        44100 Hz
Channels:          2
Bits per sample:   16
Bitrate:           733 kbps
Codec:             FLAC
================================================================================




Create a new paste based on this one


Comments: