[ create a new paste ] login | about

Link: http://codepad.org/fAdKcHyH    [ raw code | fork ]

Plain Text, pasted on Jan 16:
foobar2000 1.5 / Dynamic Range Meter 1.1.1
log date: 2020-01-17 00:24:11

--------------------------------------------------------------------------------
Analyzed: Jimi Hendrix / Axis Bold As Love [2019 Analogue Productions UHQR Vinyl]
--------------------------------------------------------------------------------

DR         Peak         RMS     Duration Track
--------------------------------------------------------------------------------
DR10      -3.70 dB   -19.44 dB      1:55 01-EXP
DR12      -2.06 dB   -16.77 dB      2:57 02-Up From The Skies
DR11      -1.42 dB   -13.98 dB      3:05 03-Spanish Castle Magic
DR12      -0.42 dB   -15.02 dB      3:02 04-Wait Until Tomorrow
DR11      -0.75 dB   -14.23 dB      1:50 05-Ain't No Telling
DR11      -0.77 dB   -15.87 dB      2:30 06-Little Wing
DR10      -2.47 dB   -15.56 dB      5:38 07-If 6 Was 9
DR11      -0.86 dB   -14.52 dB      2:48 08-You Got Me Floatin'
DR11      -2.91 dB   -17.76 dB      2:49 09-Castles Made Of Sand
DR10      -1.32 dB   -13.67 dB      2:42 10-She's So Fine
DR11      -2.40 dB   -16.56 dB      3:45 11-One Rainy Wish
DR10      -1.92 dB   -15.00 dB      2:25 12-Little Miss Lover
DR11      -0.57 dB   -13.68 dB      4:15 13-Bold As Love
--------------------------------------------------------------------------------

Number of tracks:  13
Official DR value: DR11

Samplerate:        44100 Hz
Channels:          2
Bits per sample:   16
Bitrate:           981 kbps
Codec:             FLAC
================================================================================




Create a new paste based on this one


Comments: