[ create a new paste ] login | about

Link: http://codepad.org/fAv2UXhP    [ raw code | fork ]

Plain Text, pasted on Mar 27:
foobar2000 1.3 / Dynamic Range Meter 1.1.1
log date: 2015-06-10 14:08:03

--------------------------------------------------------------------------------
Analyzed: Air Supply / Greatest Rock Ballads (Hybrid SACD) (1)
          Bad English / Greatest Rock Ballads (Hybrid SACD) (2)
          Boston / Greatest Rock Ballads (Hybrid SACD) (3)
          Cheap Trick / Greatest Rock Ballads (Hybrid SACD) (4)
          Europe / Greatest Rock Ballads (Hybrid SACD) (5)
          Journey / Greatest Rock Ballads (Hybrid SACD) (6)
          Meat Loaf / Greatest Rock Ballads (Hybrid SACD) (7)
          Reo Speedwagon / Greatest Rock Ballads (Hybrid SACD) (8)
          Santana / Greatest Rock Ballads (Hybrid SACD) (9)
          Scorpions / Greatest Rock Ballads (Hybrid SACD) (10)
          Starship / Greatest Rock Ballads (Hybrid SACD) (11)
          Steve Perry / Greatest Rock Ballads (Hybrid SACD) (12)
          Survivor / Greatest Rock Ballads (Hybrid SACD) (13)
          The Jeff Healey Band / Greatest Rock Ballads (Hybrid SACD) (14)
          Toto / Greatest Rock Ballads (Hybrid SACD) (15)
          Warrant / Greatest Rock Ballads (Hybrid SACD) (16)
--------------------------------------------------------------------------------

DR         Peak         RMS     Duration Track
--------------------------------------------------------------------------------
DR11      -1.05 dB   -14.57 dB      5:44 10-Making Love (Out Of Nothing At All)
DR12      -1.04 dB   -14.78 dB      4:21 03-When I See You Smile
DR9       -1.02 dB   -12.67 dB      3:32 08-More Than A Feeling
DR12      -1.06 dB   -14.86 dB      5:38 05-The Flame
DR9       -2.21 dB   -13.77 dB      3:15 15-Carrie
DR12      -1.05 dB   -15.70 dB      4:29 02-Faithfully
DR11      -1.44 dB   -14.62 dB      5:27 06-Two Out Of Three Ain't Bad
DR10      -1.29 dB   -14.00 dB      3:24 01-Keep On Loving You
DR12      -1.03 dB   -15.00 dB      3:57 13-Love Is You
DR12      -1.07 dB   -15.05 dB      5:47 14-Still Loving You
DR12      -1.05 dB   -15.49 dB      4:55 09-Sara
DR9       -1.14 dB   -13.08 dB      3:52 07-Oh Sherrie
DR11      -1.05 dB   -15.05 dB      4:16 11-The Search Is Over
DR10      -1.05 dB   -12.54 dB      3:56 12-While My Guitar Gently Weeps
DR11      -1.00 dB   -15.49 dB      4:57 04-I Won't Hold You Back
DR11      -1.07 dB   -14.14 dB      4:05 16-Heaven
--------------------------------------------------------------------------------

Number of tracks:  16
Official DR value: DR11

Samplerate:        88200 Hz
Channels:          2
Bits per sample:   24
Bitrate:           3114 kbps
Codec:             FLAC
================================================================================




Create a new paste based on this one


Comments: