[ create a new paste ] login | about

Link: http://codepad.org/fBwefrqS    [ raw code | fork ]

Plain Text, pasted on Jul 11:
Exact Audio Copy V0.99 prebeta 5 from 4. May 2009

EAC extraction logfile from 5. February 2012, 19:58

Toto / Toto IV 

Used drive  : PLEXTOR DVDR   PX-810SA   Adapter: 2  ID: 1

Read mode               : Secure
Utilize accurate stream : Yes
Defeat audio cache      : Yes
Make use of C2 pointers : No

Read offset correction                      : 48
Overread into Lead-In and Lead-Out          : No
Fill up missing offset samples with silence : Yes
Delete leading and trailing silent blocks   : No
Null samples used in CRC calculations       : Yes
Used interface                              : Installed external ASPI interface

Used output format : Internal WAV Routines
Sample format      : 44.100 Hz; 16 Bit; Stereo


TOC of the extracted CD

     Track |   Start  |  Length  | Start sector | End sector 
    ---------------------------------------------------------
        1  |  0:00.00 |  5:32.53 |         0    |    24952   
        2  |  5:32.53 |  3:47.65 |     24953    |    42042   
        3  |  9:20.43 |  4:55.72 |     42043    |    64239   
        4  | 14:16.40 |  3:19.38 |     64240    |    79202   
        5  | 17:36.03 |  3:08.30 |     79203    |    93332   
        6  | 20:44.33 |  3:51.62 |     93333    |   110719   
        7  | 24:36.20 |  4:26.10 |    110720    |   130679   
        8  | 29:02.30 |  3:58.18 |    130680    |   148547   
        9  | 33:00.48 |  4:13.20 |    148548    |   167542   
       10  | 37:13.68 |  4:57.67 |    167543    |   189884   


Range status and errors

Selected range

     Filename E:\Muzons\Toto\Toto - Toto IV (1982) {MasterSound Gold CK 64423}\Toto - Toto IV.wav

     Peak level 100.0 %
     Range quality 100.0 %
     Copy CRC 637E8019
     Copy OK

No errors occurred

 
AccurateRip summary
 
Track  1  accurately ripped (confidence 10)  [D5CC9628]
Track  2  accurately ripped (confidence 10)  [A71E2827]
Track  3  accurately ripped (confidence 10)  [971D341A]
Track  4  accurately ripped (confidence 10)  [1B55E38A]
Track  5  accurately ripped (confidence 10)  [47F6E250]
Track  6  accurately ripped (confidence 10)  [A5EC098E]
Track  7  accurately ripped (confidence 10)  [9CE8C72B]
Track  8  accurately ripped (confidence 10)  [24E3BBDD]
Track  9  accurately ripped (confidence 9)  [717EF4AD]
Track 10  accurately ripped (confidence 8)  [887A2EDC]
 
All tracks accurately ripped

End of status report



Create a new paste based on this one


Comments: