[ create a new paste ] login | about

Link: http://codepad.org/fDtJjIm9    [ raw code | fork ]

Plain Text, pasted on Jan 22:
EAC extraction logfile from 4. January 2006, 1:19 for CD
The Beach Boys / Pet Sounds  Gold CD

Used drive  : _NEC    DVD_RW ND-3550A   Adapter: 1  ID: 0
Read mode   : Secure with NO C2, accurate stream, disable cache
Read offset correction : 48
Overread into Lead-In and Lead-Out : No

Used output format : Internal WAV Routines
                     44.100 Hz; 16 Bit; Stereo

Other options      : 
    Fill up missing offset samples with silence : Yes
    Delete leading and trailing silent blocks : No
    Native Win32 interface for Win NT & 2000


Track  1
     Filename C:\Documents and Settings\Owner\My Documents\My Music\eac to wave\01 - Wouldn't It Be Nice.wav

     Pre-gap length  0:00:02.00

     Peak level 100.0 %
     Track quality 100.0 %
     Test CRC 45F275C5
     Copy CRC 45F275C5
     Copy OK

Track  2
     Filename C:\Documents and Settings\Owner\My Documents\My Music\eac to wave\02 - You Still Believe In Me.wav

     Pre-gap length  0:00:01.00

     Peak level 100.0 %
     Track quality 100.0 %
     Test CRC C6E3515E
     Copy CRC C6E3515E
     Copy OK

Track  3
     Filename C:\Documents and Settings\Owner\My Documents\My Music\eac to wave\03 - That's Not Me.wav

     Pre-gap length  0:00:01.16

     Peak level 100.0 %
     Track quality 100.0 %
     Test CRC 384E3392
     Copy CRC 384E3392
     Copy OK

Track  4
     Filename C:\Documents and Settings\Owner\My Documents\My Music\eac to wave\04 - Don't Talk (Put Your Head On My Shoulder).wav

     Pre-gap length  0:00:01.49

     Peak level 96.7 %
     Track quality 99.9 %
     Test CRC 5345196D
     Copy CRC 5345196D
     Copy OK

Track  5
     Filename C:\Documents and Settings\Owner\My Documents\My Music\eac to wave\05 - I'm Waiting For The Day.wav

     Pre-gap length  0:00:00.86

     Peak level 97.3 %
     Track quality 100.0 %
     Test CRC 1A967772
     Copy CRC 1A967772
     Copy OK

Track  6
     Filename C:\Documents and Settings\Owner\My Documents\My Music\eac to wave\06 - Let's Go Away For A While.wav

     Pre-gap length  0:00:01.10

     Peak level 100.0 %
     Track quality 100.0 %
     Test CRC 4662A064
     Copy CRC 4662A064
     Copy OK

Track  7
     Filename C:\Documents and Settings\Owner\My Documents\My Music\eac to wave\07 - Sloop John B.wav

     Pre-gap length  0:00:01.16

     Peak level 100.0 %
     Track quality 100.0 %
     Test CRC C48F8092
     Copy CRC C48F8092
     Copy OK

Track  8
     Filename C:\Documents and Settings\Owner\My Documents\My Music\eac to wave\08 - God Only Knows.wav

     Pre-gap length  0:00:01.40

     Peak level 100.0 %
     Track quality 100.0 %
     Test CRC 1C9E6BA2
     Copy CRC 1C9E6BA2
     Copy OK

Track  9
     Filename C:\Documents and Settings\Owner\My Documents\My Music\eac to wave\09 - I Know There's An Answer.wav

     Pre-gap length  0:00:00.89

     Peak level 100.0 %
     Track quality 100.0 %
     Test CRC 62E47858
     Copy CRC 62E47858
     Copy OK

Track 10
     Filename C:\Documents and Settings\Owner\My Documents\My Music\eac to wave\10 - Here Today.wav

     Pre-gap length  0:00:01.26

     Peak level 100.0 %
     Track quality 100.0 %
     Test CRC CB008AE9
     Copy CRC CB008AE9
     Copy OK

Track 11
     Filename C:\Documents and Settings\Owner\My Documents\My Music\eac to wave\11 - I Just Wasn't Made For These Times.wav

     Pre-gap length  0:00:01.37

     Peak level 100.0 %
     Track quality 99.9 %
     Test CRC 05E4A11E
     Copy CRC 05E4A11E
     Copy OK

Track 12
     Filename C:\Documents and Settings\Owner\My Documents\My Music\eac to wave\12 - Pet Sounds.wav

     Pre-gap length  0:00:01.70

     Peak level 96.7 %
     Track quality 99.9 %
     Test CRC F6895626
     Copy CRC F6895626
     Copy OK

Track 13
     Filename C:\Documents and Settings\Owner\My Documents\My Music\eac to wave\13 - Caroline, No.wav

     Pre-gap length  0:00:01.56

     Peak level 95.9 %
     Track quality 100.0 %
     Test CRC B3DBD1F9
     Copy CRC B3DBD1F9
     Copy OK

Track 14
     Filename C:\Documents and Settings\Owner\My Documents\My Music\eac to wave\14 - Conclusion.wav

     Peak level 78.7 %
     Track quality 100.0 %
     Test CRC CCC7B25C
     Copy CRC CCC7B25C
     Copy OK

Track 15
     Filename C:\Documents and Settings\Owner\My Documents\My Music\eac to wave\15 - Hang On To Your Ego (Earlier version of I Know There's An Answer).wav

     Pre-gap length  0:00:08.33

     Peak level 87.8 %
     Track quality 100.0 %
     Test CRC 550FC22E
     Copy CRC 550FC22E
     Copy OK

No errors occured


End of status report



Create a new paste based on this one


Comments: