[ create a new paste ] login | about

Link: http://codepad.org/fFZMmjlM    [ raw code | fork ]

Plain Text, pasted on Apr 12:
Exact Audio Copy V0.99 prebeta 4 from 23. January 2008

Отчёт EAC об извлечении, выполненном 4. марта 2009, 18:19

Brenda Lee / Little Miss Dynamite CD 1

Дисковод: Optiarc DVD RW AD-7203A   Adapter: 3  ID: 0

Режим чтения                 : Достоверность
Использование точного потока : Да
Отключение кэша аудио        : Да
Использование указателей C2  : Нет

Коррекция смещения при чтении                     : 48
Способность читать области Lead-in и Lead-out     : Нет
Заполнение пропущенных сэмплов тишиной            : Да
Удаление блоков с тишиной в начале и конце        : Нет
При вычислениях CRC использовались нулевые сэмплы : Да
Интерфейс                                         : Установленный внешний ASPI-интерфейс

Выходной формат : Внутренние WAV-операции
Формат сэмплов  : 44.100 Гц; 16 бит; стерео


TOC извлечённого CD

     Трек |   Старт  | Длительность | Начальный сектор | Конечный сектор 
    ---------------------------------------------------------------------
       1  |  0:00.00 |    2:09.70   |           0      |       9744      
       2  |  2:09.70 |    2:15.35   |        9745      |      19904      
       3  |  4:25.30 |    2:14.15   |       19905      |      29969      
       4  |  6:39.45 |    2:39.07   |       29970      |      41901      
       5  |  9:18.52 |    2:39.55   |       41902      |      53881      
       6  | 11:58.32 |    2:12.13   |       53882      |      63794      
       7  | 14:10.45 |    2:23.37   |       63795      |      74556      
       8  | 16:34.07 |    2:18.20   |       74557      |      84926      
       9  | 18:52.27 |    3:01.58   |       84927      |      98559      
      10  | 21:54.10 |    2:41.12   |       98560      |     110646      
      11  | 24:35.22 |    2:04.15   |      110647      |     119961      
      12  | 26:39.37 |    2:49.70   |      119962      |     132706      
      13  | 29:29.32 |    2:06.13   |      132707      |     142169      
      14  | 31:35.45 |    2:26.45   |      142170      |     153164      
      15  | 34:02.15 |    2:17.65   |      153165      |     163504      
      16  | 36:20.05 |    2:12.27   |      163505      |     173431      
      17  | 38:32.32 |    2:02.08   |      173432      |     182589      
      18  | 40:34.40 |    2:06.57   |      182590      |     192096      
      19  | 42:41.22 |    2:25.10   |      192097      |     202981      
      20  | 45:06.32 |    2:15.50   |      202982      |     213156      
      21  | 47:22.07 |    2:27.58   |      213157      |     224239      
      22  | 49:49.65 |    2:05.00   |      224240      |     233614      
      23  | 51:54.65 |    2:24.22   |      233615      |     244436      
      24  | 54:19.12 |    2:40.60   |      244437      |     256496      
      25  | 56:59.72 |    2:35.58   |      256497      |     268179      
      26  | 59:35.55 |    2:11.30   |      268180      |     278034      
      27  | 61:47.10 |    2:33.12   |      278035      |     289521      
      28  | 64:20.22 |    2:26.65   |      289522      |     300536      
      29  | 66:47.12 |    1:42.58   |      300537      |     308244      
      30  | 68:29.70 |    2:54.57   |      308245      |     321351      
      31  | 71:24.52 |    2:25.45   |      321352      |     332271      
      32  | 73:50.22 |    2:15.43   |      332272      |     342439      
      33  | 76:05.65 |    1:53.70   |      342440      |     350984      


Характеристики диапазона извлечения и сообщения об ошибках

Выбранный диапазон

     Имя файла D:\Раздачи\Brenda Lee\CD 1\Brenda Lee - Little Miss Dynamite CD 1.wav

     Пиковый уровень 98.0 %
     Качество диапазона 100.0 %
     CRC копии 7D7459B9
     Копирование... OK

Ошибок не произошло

 
AccurateRip: сводка
 
Трек  1  нет в базе данных
Трек  2  нет в базе данных
Трек  3  нет в базе данных
Трек  4  нет в базе данных
Трек  5  нет в базе данных
Трек  6  нет в базе данных
Трек  7  нет в базе данных
Трек  8  нет в базе данных
Трек  9  нет в базе данных
Трек 10  нет в базе данных
Трек 11  нет в базе данных
Трек 12  нет в базе данных
Трек 13  нет в базе данных
Трек 14  нет в базе данных
Трек 15  нет в базе данных
Трек 16  нет в базе данных
Трек 17  нет в базе данных
Трек 18  нет в базе данных
Трек 19  нет в базе данных
Трек 20  нет в базе данных
Трек 21  нет в базе данных
Трек 22  нет в базе данных
Трек 23  нет в базе данных
Трек 24  нет в базе данных
Трек 25  нет в базе данных
Трек 26  нет в базе данных
Трек 27  нет в базе данных
Трек 28  нет в базе данных
Трек 29  нет в базе данных
Трек 30  нет в базе данных
Трек 31  нет в базе данных
Трек 32  нет в базе данных
Трек 33  нет в базе данных
 
Ни одного трека нет в базе AccurateRip

Конец отчёта



Create a new paste based on this one


Comments: