[ create a new paste ] login | about

Link: http://codepad.org/fIHFuQjL    [ raw code | fork ]

Plain Text, pasted on May 8:
foobar2000 1.4.1 / Dynamic Range Meter 1.1.1
log date: 2019-05-07 23:11:27

--------------------------------------------------------------------------------
Analyzed: MILES DAVIS / LIVE AT THE OLYMPIA
--------------------------------------------------------------------------------

DR         Peak         RMS     Duration Track
--------------------------------------------------------------------------------
DR10      -1.94 dB   -14.27 dB     17:08 01-ALL OF YOU
DR10      -2.66 dB   -14.44 dB     13:28 02-SO WHAT
DR9       -1.71 dB   -13.27 dB      5:40 03-ROUND MIDNIGHT
DR11      -1.90 dB   -15.25 dB      9:25 04-WALKIN'
DR12      -1.60 dB   -17.72 dB      7:26 05-FRAN DANCE
DR11      -1.73 dB   -14.95 dB      8:47 06-FOUR
DR10      -2.08 dB   -13.98 dB      5:54 07-TWO BASS HIT
--------------------------------------------------------------------------------

Number of tracks:  7
Official DR value: DR10

Samplerate:        88200 Hz
Channels:          2
Bits per sample:   24
Bitrate:           2687 kbps
Codec:             FLAC
================================================================================




Create a new paste based on this one


Comments: