[ create a new paste ] login | about

Link: http://codepad.org/fMOUECUw    [ raw code | fork ]

Plain Text, pasted on Feb 20:
Exact Audio Copy V1.3 from 2. September 2016

EAC extraction logfile from 17. February 2017, 11:59

Falco / Falco 60 (CD 2 of 3)

Used drive  : PLEXTOR CD-R   PX-230A   Adapter: 1  ID: 0

Read mode               : Secure
Utilize accurate stream : Yes
Defeat audio cache      : Yes
Make use of C2 pointers : No

Read offset correction                      : 738
Overread into Lead-In and Lead-Out          : No
Fill up missing offset samples with silence : Yes
Delete leading and trailing silent blocks   : No
Null samples used in CRC calculations       : Yes
Used interface                              : Native Win32 interface for Win NT & 2000
Gap handling                                : Appended to previous track

Used output format              : User Defined Encoder
Selected bitrate                : 1024 kBit/s
Quality                         : High
Add ID3 tag                     : No
Command line compressor         : C:\Program Files\Exact Audio Copy\Flac\flac.exe
Additional command line options : -6 -V -T "ARTIST=%artist%" -T "TITLE=%title%" -T "ALBUM=%albumtitle%" -T "DATE=%year%" -T "TRACKNUMBER=%tracknr%" -T "GENRE=%genre%" -T "COMMENT=%comment%" -T "ALBUMARTIST=%albuminterpret%" -T "COMPOSER=%composer%" -T "DISCNUMBER=%cdnumber%" -T "TOTALDISCS=%totalcds%" -T "TOTALTRACKS=%numtracks%" %source% -o %dest%


TOC of the extracted CD

     Track |   Start  |  Length  | Start sector | End sector 
    ---------------------------------------------------------
        1  |  0:00.00 |  4:54.42 |         0    |    22091   
        2  |  4:54.42 |  5:15.19 |     22092    |    45735   
        3  | 10:09.61 |  4:20.36 |     45736    |    65271   
        4  | 14:30.22 |  3:32.65 |     65272    |    81236   
        5  | 18:03.12 |  3:52.18 |     81237    |    98654   
        6  | 21:55.30 |  3:54.18 |     98655    |   116222   
        7  | 25:49.48 |  3:58.71 |    116223    |   134143   
        8  | 29:48.44 |  4:06.39 |    134144    |   152632   
        9  | 33:55.08 |  5:05.73 |    152633    |   175580   
       10  | 39:01.06 |  3:37.63 |    175581    |   191918   
       11  | 42:38.69 |  3:17.01 |    191919    |   206694   
       12  | 45:55.70 |  4:11.41 |    206695    |   225560   
       13  | 50:07.36 |  3:53.36 |    225561    |   243071   
       14  | 54:00.72 |  3:40.71 |    243072    |   259642   
       15  | 57:41.68 |  3:50.68 |    259643    |   276960   
       16  | 61:32.61 |  3:48.13 |    276961    |   294073   
       17  | 65:20.74 |  3:51.71 |    294074    |   311469   
       18  | 69:12.70 |  3:36.61 |    311470    |   327730   
       19  | 72:49.56 |  3:41.08 |    327731    |   344313   


Track  1

     Filename C:\Ripped by Filex\01 - Emotional.wav

     Pre-gap length  0:00:02.00

     Peak level 97.7 %
     Extraction speed 3.1 X
     Track quality 100.0 %
     Test CRC C01A530A
     Copy CRC C01A530A
     Track not present in AccurateRip database
     Copy OK

Track  2

     Filename C:\Ripped by Filex\02 - The Star of Moon and Sun.wav

     Pre-gap length  0:00:01.00

     Peak level 97.7 %
     Extraction speed 3.2 X
     Track quality 100.0 %
     Test CRC F0B70BC8
     Copy CRC F0B70BC8
     Track not present in AccurateRip database
     Copy OK

Track  3

     Filename C:\Ripped by Filex\03 - Body Next to Body.wav

     Pre-gap length  0:00:01.00

     Peak level 70.3 %
     Extraction speed 3.1 X
     Track quality 100.0 %
     Test CRC 71058872
     Copy CRC 71058872
     Track not present in AccurateRip database
     Copy OK

Track  4

     Filename C:\Ripped by Filex\04 - Wiener Blut.wav

     Pre-gap length  0:00:01.00

     Peak level 97.7 %
     Extraction speed 3.2 X
     Track quality 100.0 %
     Test CRC 347EB93C
     Copy CRC 347EB93C
     Track not present in AccurateRip database
     Copy OK

Track  5

     Filename C:\Ripped by Filex\05 - Garbo.wav

     Pre-gap length  0:00:01.00

     Peak level 97.7 %
     Extraction speed 3.2 X
     Track quality 100.0 %
     Test CRC 5F562816
     Copy CRC 5F562816
     Track not present in AccurateRip database
     Copy OK

Track  6

     Filename C:\Ripped by Filex\06 - Tricks.wav

     Pre-gap length  0:00:01.00

     Peak level 97.7 %
     Extraction speed 3.2 X
     Track quality 100.0 %
     Test CRC F3D47B30
     Copy CRC F3D47B30
     Track not present in AccurateRip database
     Copy OK

Track  7

     Filename C:\Ripped by Filex\07 - Data de Groove (Human Version).wav

     Pre-gap length  0:00:01.00

     Peak level 97.7 %
     Extraction speed 3.1 X
     Track quality 100.0 %
     Test CRC 69BA4416
     Copy CRC 69BA4416
     Track not present in AccurateRip database
     Copy OK

Track  8

     Filename C:\Ripped by Filex\08 - Charisma Kommando (Radio Version).wav

     Pre-gap length  0:00:01.00

     Peak level 97.7 %
     Extraction speed 3.1 X
     Track quality 100.0 %
     Test CRC 13CEEB1E
     Copy CRC 13CEEB1E
     Track not present in AccurateRip database
     Copy OK

Track  9

     Filename C:\Ripped by Filex\09 - Alles im Liegen.wav

     Pre-gap length  0:00:01.00

     Peak level 82.2 %
     Extraction speed 3.2 X
     Track quality 100.0 %
     Test CRC 5726B244
     Copy CRC 5726B244
     Track not present in AccurateRip database
     Copy OK

Track 10

     Filename C:\Ripped by Filex\10 - Titanic.wav

     Pre-gap length  0:00:01.00

     Peak level 97.7 %
     Extraction speed 3.1 X
     Track quality 100.0 %
     Test CRC EFFDDB36
     Copy CRC EFFDDB36
     Track not present in AccurateRip database
     Copy OK

Track 11

     Filename C:\Ripped by Filex\11 - Nachtflug.wav

     Pre-gap length  0:00:01.00

     Peak level 97.7 %
     Extraction speed 3.2 X
     Track quality 100.0 %
     Test CRC 05638CB2
     Copy CRC 05638CB2
     Track not present in AccurateRip database
     Copy OK

Track 12

     Filename C:\Ripped by Filex\12 - Monarchy Now.wav

     Pre-gap length  0:00:01.00

     Peak level 97.7 %
     Extraction speed 3.2 X
     Track quality 100.0 %
     Test CRC 284D9F31
     Copy CRC 284D9F31
     Track not present in AccurateRip database
     Copy OK

Track 13

     Filename C:\Ripped by Filex\13 - Verdammt wir leben noch (Rough Mix).wav

     Pre-gap length  0:00:01.00

     Peak level 80.4 %
     Extraction speed 3.1 X
     Track quality 100.0 %
     Test CRC B1539038
     Copy CRC B1539038
     Track not present in AccurateRip database
     Copy OK

Track 14

     Filename C:\Ripped by Filex\14 - Mutter, der Mann mit dem Koks ist da.wav

     Pre-gap length  0:00:01.00

     Peak level 83.8 %
     Extraction speed 3.1 X
     Track quality 100.0 %
     Test CRC 1E7B5211
     Copy CRC 1E7B5211
     Track not present in AccurateRip database
     Copy OK

Track 15

     Filename C:\Ripped by Filex\15 - Naked.wav

     Pre-gap length  0:00:01.00

     Peak level 83.1 %
     Extraction speed 3.2 X
     Track quality 100.0 %
     Test CRC DC06807B
     Copy CRC DC06807B
     Track not present in AccurateRip database
     Copy OK

Track 16

     Filename C:\Ripped by Filex\16 - Push! Push! (Radio Mix).wav

     Pre-gap length  0:00:01.00

     Peak level 81.4 %
     Extraction speed 3.1 X
     Track quality 100.0 %
     Test CRC 6EB0CB7F
     Copy CRC 6EB0CB7F
     Track not present in AccurateRip database
     Copy OK

Track 17

     Filename C:\Ripped by Filex\17 - No Time for Revolution.wav

     Pre-gap length  0:00:01.00

     Peak level 97.7 %
     Extraction speed 3.2 X
     Track quality 100.0 %
     Test CRC 88A64290
     Copy CRC 88A64290
     Track not present in AccurateRip database
     Copy OK

Track 18

     Filename C:\Ripped by Filex\18 - Out of the Dark.wav

     Pre-gap length  0:00:01.00

     Peak level 85.8 %
     Extraction speed 3.1 X
     Track quality 99.9 %
     Test CRC D31B9C85
     Copy CRC D31B9C85
     Track not present in AccurateRip database
     Copy OK

Track 19

     Filename C:\Ripped by Filex\19 - Egoist (Remix).wav

     Pre-gap length  0:00:01.00

     Peak level 79.4 %
     Extraction speed 2.9 X
     Track quality 99.9 %
     Test CRC DAF828AE
     Copy CRC DAF828AE
     Track not present in AccurateRip database
     Copy OK


None of the tracks are present in the AccurateRip database

No errors occurred

End of status report

---- CUETools DB Plugin V2.1.6

[CTDB TOCID: Plt4h02zhdJHWz9StMiGCG28ckw-] disk not present in database
Submit result: Plt4h02zhdJHWz9StMiGCG28ckw- has been uploaded


==== Log checksum 2674E4D55E6D8DB52651E05F6C8CD17B2A8D8BAA319491C793122E163F4BCE2D ====



Create a new paste based on this one


Comments: