[ create a new paste ] login | about

Link: http://codepad.org/fMgcuudf    [ raw code | fork ]

Plain Text, pasted on May 8:
foobar2000 1.4.1 / Dynamic Range Meter 1.1.1
log date: 2019-05-07 18:35:52

--------------------------------------------------------------------------------
Analyzed: Miles Davis Quintet / Relaxin' With The Miles Davis Quintet
--------------------------------------------------------------------------------

DR         Peak         RMS     Duration Track
--------------------------------------------------------------------------------
DR12      -9.05 dB   -24.70 dB      8:20 01-If I Were A Bell
DR14      -7.80 dB   -26.02 dB      5:21 02-You're My Everything
DR12      -9.12 dB   -23.53 dB      5:14 03-I Could Write A Book
DR12      -8.76 dB   -24.73 dB      5:57 04-Oleo
DR14      -9.49 dB   -26.00 dB      6:41 05-It Could Happen To You
DR11      -9.73 dB   -23.85 dB      5:06 06-Woody'n You
--------------------------------------------------------------------------------

Number of tracks:  6
Official DR value: DR12

Samplerate:        2822400 Hz / PCM Samplerate: 176400 Hz
Channels:          2
Bits per sample:   1
Bitrate:           5645 kbps
Codec:             DSD64
================================================================================




Create a new paste based on this one


Comments: