[ create a new paste ] login | about

Link: http://codepad.org/fONJYXsP    [ raw code | fork ]

Plain Text, pasted on Sep 24:
foobar2000 1.4.6 / Dynamic Range Meter 1.1.1
log date: 2019-09-24 10:19:05

--------------------------------------------------------------------------------
Analyzed: Scorpions / Moment Of Glory
--------------------------------------------------------------------------------

DR         Peak         RMS     Duration Track
--------------------------------------------------------------------------------
DR14      -5.71 dB   -25.11 dB      6:00 01-Hurricane 2000
DR13      -5.11 dB   -24.73 dB      5:26 02-Moment Of Glory
DR14      -7.38 dB   -26.88 dB      6:16 03-Send Me An Angel
DR13      -5.69 dB   -24.93 dB      7:34 04-Wind Of Change
DR13      -8.22 dB   -28.19 dB      6:47 05-Crossfire (instrumental)
DR14      -5.01 dB   -23.74 dB      7:19 06-Deadly Sting Suite (instrumental)
DR14      -5.57 dB   -25.38 dB      4:15 07-Here In My Heart
DR14      -5.52 dB   -25.08 dB      8:02 08-Still Loving You
DR13      -5.38 dB   -23.38 dB      4:35 09-Big City Nights
DR14      -8.81 dB   -28.54 dB     13:59 10-Lady Starlight
--------------------------------------------------------------------------------

Number of tracks:  10
Official DR value: DR14

Samplerate:        2822400 Hz / PCM Samplerate: 176400 Hz
Channels:          6
Bits per sample:   1
Bitrate:           16934 kbps
Codec:             DST64
================================================================================

--------------------------------------------------------------------------------
Analyzed: Scorpions / Moment Of Glory
--------------------------------------------------------------------------------

DR         Peak         RMS     Duration Track
--------------------------------------------------------------------------------
DR14      -5.35 dB   -21.79 dB      6:00 01-Hurricane 2000
DR13      -6.70 dB   -22.57 dB      5:26 02-Moment Of Glory
DR13      -6.01 dB   -22.71 dB      6:16 03-Send Me An Angel
DR13      -6.44 dB   -22.81 dB      7:34 04-Wind Of Change
DR12      -7.47 dB   -24.69 dB      6:47 05-Crossfire (instrumental)
DR13      -6.32 dB   -20.87 dB      7:19 06-Deadly Sting Suite (instrumental)
DR13      -6.33 dB   -22.11 dB      4:15 07-Here In My Heart
DR12      -7.28 dB   -22.29 dB      8:02 08-Still Loving You
DR12      -6.67 dB   -20.13 dB      4:35 09-Big City Nights
DR14      -6.26 dB   -23.44 dB      5:23 10-Lady Starlight
--------------------------------------------------------------------------------

Number of tracks:  10
Official DR value: DR13

Samplerate:        2822400 Hz / PCM Samplerate: 176400 Hz
Channels:          2
Bits per sample:   1
Bitrate:           5645 kbps
Codec:             DST64
================================================================================




Create a new paste based on this one


Comments: