[ create a new paste ] login | about

Link: http://codepad.org/fTZFXX5I    [ raw code | fork ]

Plain Text, pasted on May 8:
foobar2000 1.4.1 / Dynamic Range Meter 1.1.1
log date: 2019-05-07 22:10:30

--------------------------------------------------------------------------------
Analyzed: ? / ?
--------------------------------------------------------------------------------

DR         Peak         RMS     Duration Track
--------------------------------------------------------------------------------
DR14      -3.68 dB   -21.47 dB     32:13 01-He Loved Him Madly
DR11      -5.66 dB   -18.00 dB     14:51 02-Maiysha
DR11      -6.23 dB   -19.46 dB      5:53 03-Honky Tonk
DR11      -6.94 dB   -18.87 dB      6:51 04-Rated X
--------------------------------------------------------------------------------

Number of tracks:  4
Official DR value: DR12

Samplerate:        2822400 Hz / PCM Samplerate: 176400 Hz
Channels:          2
Bits per sample:   1
Bitrate:           5645 kbps
Codec:             DSD64
================================================================================

foobar2000 1.4.1 / Dynamic Range Meter 1.1.1
log date: 2019-05-07 22:05:50

--------------------------------------------------------------------------------
Analyzed: ? / ?
--------------------------------------------------------------------------------

DR         Peak         RMS     Duration Track
--------------------------------------------------------------------------------
DR11      -5.81 dB   -18.51 dB     32:04 01-Calypso Frelimo
DR11      -5.69 dB   -17.34 dB      4:06 02-Red China Blues
DR11      -6.15 dB   -18.48 dB     15:08 03-Mtume
DR11      -5.63 dB   -19.55 dB     12:34 04-Billy Preston
--------------------------------------------------------------------------------

Number of tracks:  4
Official DR value: DR11

Samplerate:        2822400 Hz / PCM Samplerate: 176400 Hz
Channels:          2
Bits per sample:   1
Bitrate:           5645 kbps
Codec:             DSD64
================================================================================




Create a new paste based on this one


Comments: