[ create a new paste ] login | about

Link: http://codepad.org/fVXaJGWA    [ raw code | fork ]

Plain Text, pasted on Dec 26:
foobar2000 1.5 / Dynamic Range Meter 1.1.1
log date: 2019-12-26 18:40:36

--------------------------------------------------------------------------------
Analyzed: Grateful Dead / Workingman's Dead (2001 DVD Audio): Stereo
--------------------------------------------------------------------------------

DR         Peak         RMS     Duration Track
--------------------------------------------------------------------------------
DR9        0.00 dB   -10.87 dB      4:45 01-Uncle John's Band
DR9        0.00 dB   -11.55 dB      5:15 02-High Time
DR9        0.00 dB   -10.48 dB      3:16 03-Dire Wolf
DR9        0.00 dB   -10.26 dB      4:22 04-New Speedway Boogie
DR9        0.00 dB   -10.23 dB      3:20 05-Cumberland Blues
DR9        0.00 dB   -11.73 dB      5:44 06-Black Peter
DR9        0.00 dB   -10.57 dB      4:58 07-Easy Wind
DR9        0.00 dB   -11.06 dB      4:27 08-Casey Jones
--------------------------------------------------------------------------------

Number of tracks:  8
Official DR value: DR9

Samplerate:        96000 Hz
Channels:          2
Bits per sample:   24
Bitrate:           3062 kbps
Codec:             FLAC
================================================================================




Create a new paste based on this one


Comments: