[ create a new paste ] login | about

Link: http://codepad.org/faHBDgDJ    [ raw code | fork ]

Plain Text, pasted on Dec 17:
Exact Audio Copy V1.0 beta 3 from 29. August 2011

EAC extraction logfile from 12. August 2013, 21:26

The Beatles with Tony Sheridan / Single Box CD9

Used drive  : PLEXTOR BD-R  PX-B950SA   Adapter: 6  ID: 0

Read mode               : Secure
Utilize accurate stream : Yes
Defeat audio cache      : Yes
Make use of C2 pointers : No

Read offset correction                      : 6
Overread into Lead-In and Lead-Out          : No
Fill up missing offset samples with silence : Yes
Delete leading and trailing silent blocks   : No
Null samples used in CRC calculations       : Yes
Used interface                              : Native Win32 interface for Win NT & 2000

Used output format : Internal WAV Routines
Sample format      : 44.100 Hz; 16 Bit; Stereo


TOC of the extracted CD

     Track |   Start  |  Length  | Start sector | End sector 
    ---------------------------------------------------------
        1  |  0:00.00 |  2:44.61 |         0    |    12360   
        2  |  2:44.61 |  2:44.13 |     12361    |    24673   
        3  |  5:28.74 |  2:44.12 |     24674    |    36985   
        4  |  8:13.11 |  2:40.17 |     36986    |    49002   


Range status and errors

Selected range

     Filename C:\The Beatles\2013 Single Box (9 SHM-CD Box Set Universal Music Japan)\CD9\The Beatles with Tony Sheridan - Single Box CD9.wav

     Peak level 100.0 %
     Extraction speed 5.7 X
     Range quality 99.9 %
     Test CRC 8167F93A
     Copy CRC 8167F93A
     Copy OK

No errors occurred

 
AccurateRip summary
 
Track  1  not present in database
Track  2  not present in database
Track  3  not present in database
Track  4  not present in database
 
None of the tracks are present in the AccurateRip database

End of status report

==== Log checksum CADE63D3934CA3A00A50D6338B601CB754A1DE64B2047B1C5F29739549B4B4DE ====



Create a new paste based on this one


Comments: