[ create a new paste ] login | about

Link: http://codepad.org/fffDHIiX    [ raw code | fork ]

Plain Text, pasted on Jun 6:
foobar2000 1.1.10 / Dynamic Range Meter 1.1.1
log date: 2012-02-20 17:36:44

--------------------------------------------------------------------------------
Analyzed: Duke Ellington / Blues In Orbit (1999 MFSL Hybrid SACD)
--------------------------------------------------------------------------------

DR         Peak         RMS     Duration Track
--------------------------------------------------------------------------------
DR13      -0.50 dB   -16.47 dB      2:54 01-Three J's Blues
DR12      -0.01 dB   -16.89 dB      2:39 02-Smada
DR12      -0.36 dB   -15.26 dB      3:29 03-Pie Eye's Blues
DR12      -0.66 dB   -17.19 dB      4:03 04-Sweet And Pungent
DR12      -0.91 dB   -15.87 dB      4:53 05-C Jam Blues
DR12      -0.63 dB   -16.16 dB      2:43 06-In A Mellow Tone
DR11      -3.38 dB   -18.76 dB      3:42 07-Blues In Blueprint
DR13      -1.19 dB   -19.13 dB      3:08 08-The Swingers Get The Blues Too
DR12      -0.63 dB   -15.79 dB      3:55 09-The Swinger's Jump
DR13      -1.51 dB   -18.91 dB      2:29 10-Blues In Orbit
DR12      -0.73 dB   -15.53 dB      2:30 11-Villes Ville Is The Place, Man
--------------------------------------------------------------------------------

Number of tracks:  11
Official DR value: DR12

Samplerate:        88200 Hz
Channels:          2
Bits per sample:   24
Bitrate:           2856 kbps
Codec:             FLAC
================================================================================




Create a new paste based on this one


Comments: