[ create a new paste ] login | about

Link: http://codepad.org/fhA7SrDH    [ raw code | fork ]

Plain Text, pasted on Dec 12:
foobar2000 1.4.1 / Dynamic Range Meter 1.1.1
log date: 2018-12-11 20:49:50

--------------------------------------------------------------------------------
Analyzed: Buddy Holly & The Royal Philharmonic Orchestra / True Love Ways
--------------------------------------------------------------------------------

DR         Peak         RMS     Duration Track
--------------------------------------------------------------------------------
DR9       -1.45 dB   -13.52 dB      3:48 01-True Love Ways
DR9       -1.25 dB   -11.25 dB      2:14 02-It Doesn't Matter Anymore
DR10      -1.23 dB   -13.27 dB      2:17 03-Everyday
DR10      -1.24 dB   -13.28 dB      2:13 04-Heartbeat
DR11      -1.26 dB   -13.24 dB      2:50 05-Raining In My Heart
DR10      -1.23 dB   -12.60 dB      2:09 06-Oh Boy
DR10      -1.20 dB   -12.09 dB      1:51 07-Rave On
DR10      -1.24 dB   -12.55 dB      2:16 08-Words Of Love
DR9       -1.25 dB   -11.89 dB      2:19 09-That'll Be The Day
DR8       -1.30 dB   -11.29 dB      2:32 10-Peggy Sue
DR11      -1.24 dB   -13.75 dB      2:47 11-Moondreams
DR9       -1.23 dB   -12.10 dB      2:20 12-Maybe Baby
--------------------------------------------------------------------------------

Number of tracks:  12
Official DR value: DR10

Samplerate:        96000 Hz
Channels:          2
Bits per sample:   24
Bitrate:           2969 kbps
Codec:             FLAC
================================================================================




Create a new paste based on this one


Comments: