[ create a new paste ] login | about

Link: http://codepad.org/fixzu6cu    [ raw code | fork ]

Plain Text, pasted on Mar 28:
[CUETools log; Date: 3/28/2020 7:41:56 PM; Version: 2.1.7]
Pregap length 00:00:37.
[CTDB TOCID: UFMFO10SlnAbf2KOEJ9MsYsmb6Y-] found.
Track | CTDB Status
  1   | (41/43) Accurately ripped
  2   | (40/43) Accurately ripped
  3   | (41/43) Accurately ripped
  4   | (40/43) Accurately ripped
  5   | (41/43) Accurately ripped
[AccurateRip ID: 0007cdde-0024e040-44094805] found.
Track   [  CRC   |   V2   ] Status
 01     [418000bd|c036203f] (10+17/43) Accurately ripped
 02     [03a3f4fa|0da36ac5] (10+17/42) Accurately ripped
 03     [defb9be1|5bd5c919] (10+17/43) Accurately ripped
 04     [b6f1eb97|ca9b9e95] (10+17/42) Accurately ripped
 05     [1da12542|ff69dd77] (11+17/42) Accurately ripped
Offsetted by -30:
 01     [3bc0767c] (00/43) No match (V2 was not tested)
 02     [afb872b9] (00/42) No match (V2 was not tested)
 03     [7fe7b841] (00/43) No match (V2 was not tested)
 04     [69b95e9d] (00/42) No match (V2 was not tested)
 05     [0084986e] (00/42) No match (V2 was not tested)
Offsetted by 679:
 01     [a78d69e6] (00/43) No match (V2 was not tested)
 02     [3682bfca] (00/42) No match (V2 was not tested)
 03     [e1f48c5b] (00/43) No match (V2 was not tested)
 04     [9dd6333d] (00/42) No match (V2 was not tested)
 05     [646b133b] (00/42) No match (V2 was not tested)
Offsetted by 681:
 01     [4c3f5486] (02/43) Accurately ripped
 02     [cd4e4b3e] (02/42) Accurately ripped
 03     [1bffc38d] (02/43) Accurately ripped
 04     [f81b92e9] (02/42) Accurately ripped
 05     [84419701] (00/42) No match (V2 was not tested)
Offsetted by 1197:
 01     [c171f894] (00/43) No match (V2 was not tested)
 02     [94a1dca2] (00/42) No match (V2 was not tested)
 03     [c94c2de3] (00/43) No match (V2 was not tested)
 04     [608abdae] (00/42) No match (V2 was not tested)
 05     [f0bad6e0] (00/42) No match (V2 was not tested)
Offsetted by 1238:
 01     [9296b431] (00/43) No match (V2 was not tested)
 02     [c48d1009] (00/42) No match (V2 was not tested)
 03     [eb521c5c] (00/43) No match (V2 was not tested)
 04     [df7434fd] (00/42) No match (V2 was not tested)
 05     [8525a2e2] (00/42) No match (V2 was not tested)
Offsetted by 1580:
 01     [6230a511] (00/43) No match (V2 was not tested)
 02     [74a5112e] (00/42) No match (V2 was not tested)
 03     [a41c935d] (00/43) No match (V2 was not tested)
 04     [45a648b7] (00/42) No match (V2 was not tested)
 05     [9167994e] (00/42) No match (V2 was not tested)
Offsetted by 1743:
 01     [2e17ce79] (00/43) No match (V2 was not tested)
 02     [efe26ce5] (00/42) No match (V2 was not tested)
 03     [3f9fb799] (00/43) No match (V2 was not tested)
 04     [489759f9] (00/42) No match (V2 was not tested)
 05     [f92b9107] (00/42) No match (V2 was not tested)

Track Peak [ CRC32  ] [W/O NULL] 
 --   94.8 [BBDFB321] [C045F5F4]           
 01   94.8 [5C5DF35C] [7EC3A5DC]           
 02   57.7 [5ECE2AF1] [595534EC]           
 03   88.2 [2A4E4735] [40FF171A]           
 04   89.5 [29C4F773] [E86B07FF]           
 05   86.2 [F620BB2C] [7A741978]           



Create a new paste based on this one


Comments: