[ create a new paste ] login | about

Link: http://codepad.org/fjQc2Clx    [ raw code | fork ]

Plain Text, pasted on Nov 28:
[CUETools log; Date: 11/28/2016 7:40:44 AM; Version: 2.1.5]
[CTDB TOCID: 4_DCOK0XLTJt7RpTM7XNrVhMCmI-] found.
Track | CTDB Status
  1   | (8/8) Accurately ripped
  2   | (8/8) Accurately ripped
  3   | (8/8) Accurately ripped
  4   | (8/8) Accurately ripped
  5   | (8/8) Accurately ripped
  6   | (8/8) Accurately ripped
  7   | (8/8) Accurately ripped
  8   | (8/8) Accurately ripped
  9   | (8/8) Accurately ripped
 10   | (8/8) Accurately ripped
 11   | (8/8) Accurately ripped
 12   | (8/8) Accurately ripped
 13   | (8/8) Accurately ripped
 14   | (8/8) Accurately ripped
 15   | (8/8) Accurately ripped
 16   | (8/8) Accurately ripped
 17   | (8/8) Accurately ripped
 18   | (8/8) Accurately ripped
 19   | (8/8) Accurately ripped
 20   | (8/8) Accurately ripped
[AccurateRip ID: 002e41d7-02a27967-230ed714] found.
Track   [  CRC   |   V2   ] Status
 01     [63579273|d27f5ba8] (0+0/9) No match
 02     [3b186aa7|fdc4f0e0] (0+0/7) No match
 03     [66c5bc9c|63e6618b] (0+0/7) No match
 04     [09b9da4e|c870e346] (0+0/7) No match
 05     [c41f02ed|dc3143da] (0+0/7) No match
 06     [e52f6fe3|275ea11f] (0+0/7) No match
 07     [38702105|90dc73b9] (0+0/7) No match
 08     [44ecae27|18176d0d] (0+0/7) No match
 09     [cf6a96a9|06682e96] (0+0/7) No match
 10     [f7608310|9afde13b] (0+0/7) No match
 11     [9f031df1|4b3280ec] (0+0/7) No match
 12     [a55d5857|137e8f39] (0+0/7) No match
 13     [e7dfcae0|b2703e7f] (0+0/7) No match
 14     [1f198f27|fd6cfcad] (0+0/7) No match
 15     [1b0f15f8|5d108d75] (0+0/7) No match
 16     [46051711|a8829d18] (0+0/7) No match
 17     [ed8dc722|f3b965ff] (0+0/6) No match
 18     [b5548e28|7381523a] (0+0/7) No match
 19     [7215f87d|c3633093] (0+0/7) No match
 20     [58315d45|97bf60ad] (0+0/7) No match
Offsetted by 18:
 01     [7e17dcd3] (2/9) Accurately ripped
 02     [322f89af] (2/7) Accurately ripped
 03     [d116865c] (2/7) Accurately ripped
 04     [38215e14] (2/7) Accurately ripped
 05     [d9418023] (2/7) Accurately ripped
 06     [7b8c6e33] (2/7) Accurately ripped
 07     [fba95e41] (2/7) Accurately ripped
 08     [9504ee29] (2/7) Accurately ripped
 09     [69da31df] (2/7) Accurately ripped
 10     [246ea2f4] (2/7) Accurately ripped
 11     [0f475739] (2/7) Accurately ripped
 12     [359f1145] (2/7) Accurately ripped
 13     [1b1b9334] (2/7) Accurately ripped
 14     [762da915] (2/7) Accurately ripped
 15     [e9a12744] (2/7) Accurately ripped
 16     [be3c66c3] (2/7) Accurately ripped
 17     [54e6414a] (2/6) Accurately ripped
 18     [6aee448a] (2/7) Accurately ripped
 19     [58dc9981] (2/7) Accurately ripped
 20     [74711221] (2/7) Accurately ripped
Offsetted by 682:
 01     [cab0cd53] (3/9) Accurately ripped
 02     [cd12ad0f] (3/7) Accurately ripped
 03     [cd9e435c] (3/7) Accurately ripped
 04     [04613e9c] (3/7) Accurately ripped
 05     [3a39c3eb] (3/7) Accurately ripped
 06     [26482ff3] (3/7) Accurately ripped
 07     [8f054d91] (3/7) Accurately ripped
 08     [add8d201] (3/7) Accurately ripped
 09     [00281da7] (3/7) Accurately ripped
 10     [a277ad24] (3/7) Accurately ripped
 11     [e754ed99] (3/7) Accurately ripped
 12     [70de9aad] (3/7) Accurately ripped
 13     [eed554a4] (3/7) Accurately ripped
 14     [742f9e7d] (3/7) Accurately ripped
 15     [ca3ba554] (3/7) Accurately ripped
 16     [10df70db] (3/7) Accurately ripped
 17     [1cc2862a] (2/6) Accurately ripped
 18     [cedba8e2] (3/7) Accurately ripped
 19     [7d7bcd31] (3/7) Accurately ripped
 20     [6a10e8f1] (3/7) Accurately ripped

Track Peak [ CRC32  ] [W/O NULL] 
 --   96.1 [55F776B7] [2E92217C]           
 01   74.1 [992F6511] [74385934]           
 02   77.3 [370CB417] [DB033AA1]           
 03   96.1 [726A5E1E] [0FAB4910]           
 04   93.8 [ABE56A0D] [EDA40878]           
 05   66.0 [2EB274BF] [893ADE6D]           
 06   68.7 [D396281E] [2A03CDBE]           
 07   68.8 [5E1B8A86] [CEFBB9E8]           
 08   73.7 [9F42549C] [532880B4]           
 09   80.0 [BD5EFDED] [EC01BF08]           
 10   61.9 [58B6EDB4] [7217916E]           
 11   90.2 [C73B159F] [E76690AD]           
 12   75.6 [7C09D8C0] [DC4F9629]           
 13   63.7 [AB769446] [0DC6F31F]           
 14   49.5 [F5AA38DC] [D395DDDC]           
 15   74.8 [B38C5441] [29DBB588]           
 16   56.2 [BBBAF98C] [30BA1686]           
 17   69.6 [17794922] [3163C775]           
 18   59.9 [20CEB5B6] [83EC5720]           
 19   70.7 [56F1E0BA] [0E67C0B0]           
 20   68.0 [E0D9B51F] [91CA99FD]           



Create a new paste based on this one


Comments: