[ create a new paste ] login | about

Link: http://codepad.org/fkHjT5Es    [ raw code | fork ]

Plain Text, pasted on May 30:
foobar2000 1.3.15 / Dynamic Range Meter 1.1.1
log date: 2017-05-29 14:52:33

--------------------------------------------------------------------------------
Analyzed: John Mayall & Friends / Along For The Ride (Audio Fidelity AFZ 016 SACD)
--------------------------------------------------------------------------------

DR         Peak         RMS     Duration Track
--------------------------------------------------------------------------------
DR14      -0.60 dB   -16.33 dB      4:31 01-A World Of Hurt
DR14      -0.60 dB   -15.99 dB      4:50 02-Along For The Ride
DR15      -0.60 dB   -16.51 dB      4:31 03-Put It Right Back
DR13      -0.60 dB   -14.86 dB      4:15 04-That's Why I Love You So
DR14      -1.46 dB   -16.26 dB      2:59 05-Yo Yo Man
DR14      -0.60 dB   -16.29 dB      5:20 06-If I Don't Get Home
DR13      -0.60 dB   -14.84 dB      4:26 07-Testify
DR14      -0.60 dB   -15.76 dB      4:06 08-Early In The Morning
DR13      -0.60 dB   -15.55 dB      4:18 09-Something About My Baby
DR12      -1.69 dB   -16.27 dB      6:11 10-So Many Roads
DR14      -0.93 dB   -17.29 dB      4:27 11-World War Blues
DR14      -0.60 dB   -16.56 dB      5:55 12-California
DR14      -0.60 dB   -15.20 dB      5:14 13-She don't Play By The Rules
DR12      -4.12 dB   -19.17 dB      3:06 14-Bad Dream Catcher (John Lee Hooker)-Bonus Track
--------------------------------------------------------------------------------

Number of tracks:  14
Official DR value: DR14

Samplerate:        44100 Hz
Channels:          2
Bits per sample:   16
Bitrate:           904 kbps
Codec:             FLAC
================================================================================




Create a new paste based on this one


Comments: