[ create a new paste ] login | about

Link: http://codepad.org/flR8H0iy    [ raw code | fork ]

Plain Text, pasted on Aug 13:
foobar2000 1.3.17 / Dynamic Range Meter 1.1.1
log date: 2018-08-13 15:23:05

--------------------------------------------------------------------------------
Analyzed: Elvis Presley / Where No One Stands Alone (Remastered)
--------------------------------------------------------------------------------

DR         Peak         RMS     Duration Track
--------------------------------------------------------------------------------
DR8        0.00 dB    -9.15 dB      3:34 01-I've Got Confidence
DR8       -0.23 dB   -10.62 dB      3:41 02-Where No One Stands Alone
DR7        0.00 dB    -8.50 dB      3:32 03-Saved
DR11      -0.30 dB   -13.74 dB      2:35 04-Crying In the Chapel
DR8       -0.21 dB    -9.24 dB      2:44 05-So High
DR9       -0.25 dB   -12.80 dB      2:48 06-Stand By Me
DR8       -0.07 dB    -8.63 dB      2:24 07-Bosom of Abraham
DR7        0.00 dB    -9.65 dB      3:09 08-How Great Thou Art
DR7        0.00 dB    -8.95 dB      3:07 09-I, John
DR6       -0.05 dB    -9.78 dB      3:06 10-You'll Never Walk Alone
DR7       -0.20 dB    -9.56 dB      3:06 11-He Touched Me
DR9       -0.23 dB   -11.40 dB      3:55 12-In the Garden
DR7       -0.21 dB    -9.11 dB      3:05 13-He Is My Everything
DR8       -0.22 dB    -9.79 dB      3:29 14-Amazing Grace
--------------------------------------------------------------------------------

Number of tracks:  14
Official DR value: DR8

Samplerate:        44100 Hz
Channels:          2
Bits per sample:   16
Bitrate:           802 kbps
Codec:             FLAC
================================================================================




Create a new paste based on this one


Comments: