[ create a new paste ] login | about

Link: http://codepad.org/fn0C4HXU    [ raw code | fork ]

Plain Text, pasted on Nov 7:
Exact Audio Copy V1.1 from 23. June 2015

EAC extraction logfile from 5. November 2016, 1:50

Santana / Santana IV Live At The House Of Blues Las Vegas

Used drive  : PLEXTOR DVDR   PX-891SA   Adapter: 1  ID: 0

Read mode               : Secure
Utilize accurate stream : Yes
Defeat audio cache      : Yes
Make use of C2 pointers : No

Read offset correction                      : 6
Overread into Lead-In and Lead-Out          : No
Fill up missing offset samples with silence : Yes
Delete leading and trailing silent blocks   : No
Null samples used in CRC calculations       : Yes
Used interface                              : Native Win32 interface for Win NT & 2000
Gap handling                                : Appended to previous track

Used output format              : User Defined Encoder
Selected bitrate                : 1024 kBit/s
Quality                         : High
Add ID3 tag                     : No
Command line compressor         : C:\Program Files (x86)\Exact Audio Copy\Flac\flac.exe
Additional command line options : -0 -V -T "ARTIST=%artist%" -T "TITLE=%title%" -T "ALBUM=%albumtitle%" -T "DATE=%year%" -T "TRACKNUMBER=%tracknr%" -T "TOTALTRACKS=%numtracks%" -T "GENRE=%genre%" -T "COMMENT=" %source%


TOC of the extracted CD

     Track |   Start  |  Length  | Start sector | End sector 
    ---------------------------------------------------------
        1  |  0:00.00 |  5:26.66 |         0    |    24515   
        2  |  5:26.66 |  4:42.66 |     24516    |    45731   
        3  | 10:09.57 |  5:13.11 |     45732    |    69217   
        4  | 15:22.68 |  5:24.02 |     69218    |    93519   
        5  | 20:46.70 |  5:25.34 |     93520    |   117928   
        6  | 26:12.29 |  6:35.49 |    117929    |   147602   
        7  | 32:48.03 |  5:26.50 |    147603    |   172102   
        8  | 38:14.53 |  2:18.28 |    172103    |   182480   
        9  | 40:33.06 |  7:36.02 |    182481    |   216682   
       10  | 48:09.08 |  6:16.47 |    216683    |   244929   
       11  | 54:25.55 |  8:26.52 |    244930    |   282931   


Track  1

     Filename E:\Santana ‎– Santana IV Live At The House Of Blues Las Vegas (2 CD + DVD 2016)[FLAC]\CD 2\01 - Caminando.wav

     Pre-gap length  0:00:02.00

     Peak level 100.0 %
     Extraction speed 2.0 X
     Track quality 100.0 %
     Test CRC A8579B5E
     Copy CRC A8579B5E
     Track not present in AccurateRip database
     Copy OK

Track  2

     Filename E:\Santana ‎– Santana IV Live At The House Of Blues Las Vegas (2 CD + DVD 2016)[FLAC]\CD 2\02 - Blues Magic.wav

     Peak level 99.6 %
     Extraction speed 1.7 X
     Track quality 99.9 %
     Test CRC CED47A71
     Copy CRC CED47A71
     Track not present in AccurateRip database
     Copy OK

Track  3

     Filename E:\Santana ‎– Santana IV Live At The House Of Blues Las Vegas (2 CD + DVD 2016)[FLAC]\CD 2\03 - Echizo.wav

     Peak level 100.0 %
     Extraction speed 2.4 X
     Track quality 100.0 %
     Test CRC 923560CE
     Copy CRC 923560CE
     Track not present in AccurateRip database
     Copy OK

Track  4

     Filename E:\Santana ‎– Santana IV Live At The House Of Blues Las Vegas (2 CD + DVD 2016)[FLAC]\CD 2\04 - Come As You Are.wav

     Peak level 100.0 %
     Extraction speed 2.1 X
     Track quality 99.9 %
     Test CRC 72F07E19
     Copy CRC 72F07E19
     Track not present in AccurateRip database
     Copy OK

Track  5

     Filename E:\Santana ‎– Santana IV Live At The House Of Blues Las Vegas (2 CD + DVD 2016)[FLAC]\CD 2\05 - Yambu.wav

     Peak level 100.0 %
     Extraction speed 2.9 X
     Track quality 100.0 %
     Test CRC 971DE9A8
     Copy CRC 971DE9A8
     Track not present in AccurateRip database
     Copy OK

Track  6

     Filename E:\Santana ‎– Santana IV Live At The House Of Blues Las Vegas (2 CD + DVD 2016)[FLAC]\CD 2\06 - Black Magic Woman & Gypsy Queen.wav

     Peak level 100.0 %
     Extraction speed 3.2 X
     Track quality 100.0 %
     Test CRC F1FF29F5
     Copy CRC F1FF29F5
     Track not present in AccurateRip database
     Copy OK

Track  7

     Filename E:\Santana ‎– Santana IV Live At The House Of Blues Las Vegas (2 CD + DVD 2016)[FLAC]\CD 2\07 - Oye Como Va.wav

     Peak level 100.0 %
     Extraction speed 2.6 X
     Track quality 99.9 %
     Test CRC EE41F156
     Copy CRC EE41F156
     Track not present in AccurateRip database
     Copy OK

Track  8

     Filename E:\Santana ‎– Santana IV Live At The House Of Blues Las Vegas (2 CD + DVD 2016)[FLAC]\CD 2\08 - Ronald Isley Intro.wav

     Peak level 92.9 %
     Extraction speed 3.1 X
     Track quality 100.0 %
     Test CRC 53081621
     Copy CRC 53081621
     Track not present in AccurateRip database
     Copy OK

Track  9

     Filename E:\Santana ‎– Santana IV Live At The House Of Blues Las Vegas (2 CD + DVD 2016)[FLAC]\CD 2\09 - Love Makes The World Go Round (feat. Ronald Isley).wav

     Peak level 100.0 %
     Extraction speed 3.7 X
     Track quality 100.0 %
     Test CRC 35779F53
     Copy CRC 35779F53
     Track not present in AccurateRip database
     Copy OK

Track 10

     Filename E:\Santana ‎– Santana IV Live At The House Of Blues Las Vegas (2 CD + DVD 2016)[FLAC]\CD 2\10 - Freedom In Your Mind (feat. Ronald Isley).wav

     Peak level 100.0 %
     Extraction speed 3.9 X
     Track quality 100.0 %
     Test CRC 99DE54A0
     Copy CRC 99DE54A0
     Track not present in AccurateRip database
     Copy OK

Track 11

     Filename E:\Santana ‎– Santana IV Live At The House Of Blues Las Vegas (2 CD + DVD 2016)[FLAC]\CD 2\11 - Toussaint L'Ouverture.wav

     Peak level 100.0 %
     Extraction speed 4.2 X
     Track quality 100.0 %
     Test CRC 63168D3D
     Copy CRC 63168D3D
     Track not present in AccurateRip database
     Copy OK


None of the tracks are present in the AccurateRip database

No errors occurred

End of status report

==== Log checksum 7C64323686FD9509AA1795B9C2BFD5A21353B58BA6D563DD0323510CCBA2A9A9 ====



Create a new paste based on this one


Comments: