[ create a new paste ] login | about

Link: http://codepad.org/fpoLrgCh    [ raw code | fork ]

Plain Text, pasted on Jun 23:
foobar2000 1.5 / Dynamic Range Meter 1.1.1
log date: 2020-06-23 02:26:08

--------------------------------------------------------------------------------
Analyzed: Various Artists / Female Audiophile - II
--------------------------------------------------------------------------------

DR         Peak         RMS     Duration Track
--------------------------------------------------------------------------------
DR8       -5.93 dB   -17.93 dB      5:43 01-The Good Life
DR8       -6.84 dB   -17.98 dB      5:03 02-Close To you
DR13      -5.04 dB   -20.22 dB      4:15 03-Desperado
DR12      -5.40 dB   -19.80 dB      3:06 04-In My Life
DR9       -7.54 dB   -19.10 dB      4:32 05-Can't Buy Me Love
DR11      -6.23 dB   -20.53 dB      5:03 06-Don't Weep
DR11      -5.98 dB   -18.74 dB      4:37 07-You Must Believe In Spring
DR10      -7.03 dB   -18.30 dB      6:27 08-Love For Sale
DR11      -5.48 dB   -19.38 dB      6:16 09-The Mirrors Of My Soul
DR11      -7.09 dB   -20.93 dB      4:19 10-I Don't Want To Talk About It
DR11      -6.25 dB   -19.29 dB      3:03 11-What Joy
DR12      -5.60 dB   -19.94 dB      3:32 12-Dulce Marioneta
DR11      -5.90 dB   -20.87 dB      6:29 13-Pardon, Goddess Of The Night
DR11      -6.55 dB   -21.20 dB      4:05 14-Tenderly
DR12      -5.43 dB   -19.62 dB      4:02 15-Wave On Rock
--------------------------------------------------------------------------------

Number of tracks:  15
Official DR value: DR11

Samplerate:        2822400 Hz / PCM Samplerate: 176400 Hz
Channels:          2
Bits per sample:   1
Bitrate:           5645 kbps
Codec:             DST64
================================================================================




Create a new paste based on this one


Comments: