[ create a new paste ] login | about

Link: http://codepad.org/fryu1M1x    [ raw code | fork ]

Plain Text, pasted on Dec 28:
foobar2000 1.3.8 / Dynamic Range Meter 1.1.1
log date: 2016-10-22 18:30:07

--------------------------------------------------------------------------------
Analyzed: The Rolling Stones / Out of Our Heads (U.K.)
--------------------------------------------------------------------------------

DR         Peak         RMS     Duration Track
--------------------------------------------------------------------------------
DR10      -0.44 dB   -11.21 dB      1:36 01-She Said Yeah
DR11       0.00 dB   -12.17 dB      2:47 02-Mercy Mercy
DR10       0.00 dB   -11.58 dB      2:26 03-Hitch Hike
DR10       0.00 dB   -11.61 dB      2:26 04-That's How Strong My Love Is
DR10       0.00 dB   -10.91 dB      2:00 05-Good Times
DR10      -0.11 dB   -11.58 dB      2:08 06-Gotta Get Away
DR11       0.00 dB   -11.86 dB      2:32 07-Talkin' 'Bout You
DR10       0.00 dB   -12.15 dB      3:10 08-Cry To Me
DR11      -0.04 dB   -12.29 dB      2:09 09-Oh, Baby (We Got A Good Thing Goin')
DR11      -0.02 dB   -13.30 dB      2:51 10-Heart Of Stone
DR11      -0.32 dB   -12.58 dB      3:08 11-The Under Assistant West Coast Promotion Man
DR10      -0.25 dB   -11.53 dB      2:23 12-I'm Free
--------------------------------------------------------------------------------

Number of tracks:  12
Official DR value: DR10

Samplerate:        192000 Hz
Channels:          2
Bits per sample:   24
Bitrate:           3401 kbps
Codec:             FLAC
================================================================================




Create a new paste based on this one


Comments: