[ create a new paste ] login | about

Link: http://codepad.org/g34FNshZ    [ raw code | fork ]

Plain Text, pasted on May 8:
foobar2000 1.4.1 / Dynamic Range Meter 1.1.1
log date: 2019-05-07 23:09:33

--------------------------------------------------------------------------------
Analyzed: Miles Davis Quintet / Relaxin' With The Miles Davis Quintet
--------------------------------------------------------------------------------

DR         Peak         RMS     Duration Track
--------------------------------------------------------------------------------
DR12      -3.38 dB   -18.92 dB      8:22 01-If I Were A Bell
DR14      -1.84 dB   -20.28 dB      5:21 02-You're My Everything
DR11      -3.36 dB   -17.68 dB      5:14 03-I Could Write A Book
DR12      -3.04 dB   -18.92 dB      5:57 04-Oleo
DR13      -3.88 dB   -20.26 dB      6:41 05-It Could Happen To You
DR11      -4.00 dB   -18.01 dB      5:06 06-Woody'n You
--------------------------------------------------------------------------------

Number of tracks:  6
Official DR value: DR12

Samplerate:        88200 Hz
Channels:          2
Bits per sample:   24
Bitrate:           2492 kbps
Codec:             FLAC
================================================================================




Create a new paste based on this one


Comments: