[ create a new paste ] login | about

Link: http://codepad.org/g5C5wIk4    [ raw code | fork ]

Plain Text, pasted on Nov 26:
[CUETools log; Date: 11/26/2016 7:33:18 AM; Version: 2.1.5]
[CTDB TOCID: 3QRoBvPJcg5MbLzA5s8DToQDJKQ-] found.
Track | CTDB Status
  1   | (32/33) Accurately ripped
  2   | (32/33) Accurately ripped
  3   | (31/33) Accurately ripped
  4   | (32/33) Accurately ripped
  5   | (32/33) Accurately ripped
  6   | (32/33) Accurately ripped
  7   | (32/33) Accurately ripped
  8   | (32/33) Accurately ripped
  9   | (32/33) Accurately ripped
 10   | (31/33) Accurately ripped
 11   | (31/33) Accurately ripped
 12   | (31/33) Accurately ripped
 13   | (31/33) Accurately ripped
 14   | (29/33) Accurately ripped
 15   | (28/33) Accurately ripped
 16   | (32/33) Accurately ripped
 17   | (32/33) Accurately ripped
 18   | (31/33) Accurately ripped
 19   | (31/33) Accurately ripped
 20   | (31/33) Accurately ripped
 21   | (32/33) Accurately ripped
 22   | (29/33) Accurately ripped
 23   | (31/33) Accurately ripped
 24   | (31/33) Accurately ripped
 25   | (30/33) Accurately ripped
 26   | (32/33) Accurately ripped
 27   | (31/33) Accurately ripped
 28   | (31/33) Accurately ripped
 29   | (25/33) Differs in 9174 samples @02:43:35-02:43:45
[AccurateRip ID: 004d4db2-06403a1b-9111c81d] found.
Track   [  CRC   |   V2   ] Status
 01     [b30903cd|a47d32f5] (021+034/115) Accurately ripped
 02     [b16ea5f5|20a371c2] (023+034/117) Accurately ripped
 03     [19bec38c|95233a5c] (022+034/116) Accurately ripped
 04     [1e9a7499|dff17ed9] (022+034/116) Accurately ripped
 05     [ec677fe4|84134bbb] (022+034/115) Accurately ripped
 06     [324ef20d|f0d8ebcb] (022+034/115) Accurately ripped
 07     [7812f19e|eafd6ac7] (022+034/117) Accurately ripped
 08     [d8c597b4|4bd7a686] (022+034/115) Accurately ripped
 09     [1cca55ba|4b35c2ea] (023+034/118) Accurately ripped
 10     [4ad8e25a|51690dc7] (021+034/116) Accurately ripped
 11     [dbdf2034|d035986e] (022+034/113) Accurately ripped
 12     [bae09127|75eb0043] (022+034/114) Accurately ripped
 13     [2b85239d|4a0fa908] (022+034/115) Accurately ripped
 14     [20789c86|2ceda68c] (022+034/112) Accurately ripped
 15     [222be7f4|ecf2acad] (022+034/114) Accurately ripped
 16     [bf96e91d|954e1fda] (022+034/115) Accurately ripped
 17     [ee68da53|449b4c9d] (022+034/115) Accurately ripped
 18     [1e3e66d0|0a7084e0] (022+034/115) Accurately ripped
 19     [6bc78c1d|20f5ba38] (022+034/115) Accurately ripped
 20     [7c338b95|85ab45d8] (022+034/115) Accurately ripped
 21     [221f4015|a4ae8642] (021+033/111) Accurately ripped
 22     [3fcdb21e|dcd9fe67] (022+033/114) Accurately ripped
 23     [62358d8e|cfb09d2a] (020+033/112) Accurately ripped
 24     [ef9ee92d|a514c685] (021+033/112) Accurately ripped
 25     [e8d5504f|0fe705b2] (022+033/113) Accurately ripped
 26     [bc9b710c|1419b4d9] (022+033/114) Accurately ripped
 27     [49bee163|528e0299] (022+033/113) Accurately ripped
 28     [c228c2f4|556cd28f] (022+033/114) Accurately ripped
 29     [b850f08a|c8463306] (000+000/108) No match
Offsetted by 12:
 01     [6f29a0fb] (034/115) Accurately ripped
 02     [ebcbd92b] (034/117) Accurately ripped
 03     [fa070121] (034/116) Accurately ripped
 04     [bbba335d] (034/116) Accurately ripped
 05     [e2b53b87] (034/115) Accurately ripped
 06     [098161a9] (033/115) Accurately ripped
 07     [e2718f17] (035/117) Accurately ripped
 08     [0dd1a3df] (034/115) Accurately ripped
 09     [b2e2e3a7] (035/118) Accurately ripped
 10     [00f9a3c0] (035/116) Accurately ripped
 11     [4dfc2171] (034/113) Accurately ripped
 12     [14d00555] (034/114) Accurately ripped
 13     [b53009ed] (034/115) Accurately ripped
 14     [9529f421] (033/112) Accurately ripped
 15     [4a44ef22] (034/114) Accurately ripped
 16     [ca8bb26d] (034/115) Accurately ripped
 17     [f61bdd42] (034/115) Accurately ripped
 18     [2e5a7036] (034/115) Accurately ripped
 19     [834db502] (034/115) Accurately ripped
 20     [10ed79d4] (034/115) Accurately ripped
 21     [335b96e0] (034/111) Accurately ripped
 22     [44258249] (034/114) Accurately ripped
 23     [5be85f73] (034/112) Accurately ripped
 24     [3cedbaf6] (034/112) Accurately ripped
 25     [472ceb89] (034/113) Accurately ripped
 26     [549cc8b6] (033/114) Accurately ripped
 27     [a3d25ad5] (034/113) Accurately ripped
 28     [108925f9] (033/114) Accurately ripped
 29     [4ddf779b] (000/108) No match (V2 was not tested)

Track Peak [ CRC32  ] [W/O NULL] 
 --  100.0 [CC41DF87] [6A0B36B2]           
 01   94.9 [865A405A] [DA1FC7DB]           
 02   87.6 [FFCC44FD] [3A8D3F87]           
 03   98.0 [5F13E5AA] [D7241E6D]           
 04  100.0 [ECBDDD6D] [B7783379]           
 05   82.7 [E61CE219] [1BDCC76B]           
 06   94.4 [93745BA9] [7F449064]           
 07   96.7 [3F8EAFFC] [89EAF213]           
 08   95.6 [9121CB91] [093369AB]           
 09   92.5 [1F439F90] [A2C56922]           
 10   99.8 [72E11FE5] [4D3AA9CA]           
 11   89.4 [7D6C4905] [7D3F1483]           
 12   86.9 [869F0FC7] [82687990]           
 13   93.2 [09931071] [8FDA23E1]           
 14   99.6 [88E3F737] [4D68D2C8]           
 15   99.8 [7283301C] [9395BFFF]           
 16   99.2 [CBEED916] [61B244EF]           
 17   99.8 [B3953449] [2BD36641]           
 18  100.0 [56B508C2] [5375BAF0]           
 19   89.6 [FB52549D] [229DDAE8]           
 20   98.8 [68501551] [6FDE8771]           
 21   98.6 [7CB45A06] [FEAD55AB]           
 22   99.8 [759DED90] [49F1C4F7]           
 23   96.0 [0C453F9F] [C7662C8C]           
 24   93.9 [459E3F38] [F2F260B3]           
 25  100.0 [A470709C] [0EE78FF5]           
 26   81.5 [87ECF0D5] [3A7256E3]           
 27   79.7 [B31E0C5A] [28EC85C3]           
 28   97.0 [906F1FE4] [1CEB63E5]           
 29   98.4 [E775F5EA] [1D8A0E21]           



Create a new paste based on this one


Comments: