[ create a new paste ] login | about

Link: http://codepad.org/g8Q2gblr    [ raw code | fork ]

Plain Text, pasted on Dec 16:
Exact Audio Copy V1.0 beta 3 from 29. August 2011

EAC extraction logfile from 20. May 2014, 20:50

Various Artists / Pure... 50s CD3

Used drive  : PIONEER BD-RW   BDR-206   Adapter: 5  ID: 0

Read mode               : Secure
Utilize accurate stream : Yes
Defeat audio cache      : Yes
Make use of C2 pointers : No

Read offset correction                      : 667
Overread into Lead-In and Lead-Out          : No
Fill up missing offset samples with silence : Yes
Delete leading and trailing silent blocks   : No
Null samples used in CRC calculations       : Yes
Used interface                              : Native Win32 interface for Win NT & 2000

Used output format              : User Defined Encoder
Selected bitrate                : 1024 kBit/s
Quality                         : High
Add ID3 tag                     : No
Command line compressor         : C:\Program Files (x86)\Exact Audio Copy\Flac\flac.exe
Additional command line options : -8 -V -T "ARTIST=%artist%" -T "TITLE=%title%" -T "ALBUM=%albumtitle%" -T "DATE=%year%" -T "TRACKNUMBER=%tracknr%" -T "GENRE=%genre%" -T "COMMENT=%comment%" -T "BAND=%albuminterpret%" -T "ALBUMARTIST=%albuminterpret%" -T "COMPOSER=%composer%" %haslyrics%--tag-from-file=LYRICS="%lyricsfile%"%haslyrics% -T "DISCNUMBER=%cdnumber%" -T "TOTALDISCS=%totalcds%" -T "TOTALTRACKS=%numtracks%" %hascover%--picture="%coverfile%"%hascover% %source% -o %dest%


TOC of the extracted CD

     Track |   Start  |  Length  | Start sector | End sector 
    ---------------------------------------------------------
        1  |  0:00.00 |  2:28.21 |         0    |    11120   
        2  |  2:28.21 |  2:41.53 |     11121    |    23248   
        3  |  5:09.74 |  2:30.09 |     23249    |    34507   
        4  |  7:40.08 |  2:39.27 |     34508    |    46459   
        5  | 10:19.35 |  2:32.47 |     46460    |    57906   
        6  | 12:52.07 |  2:33.00 |     57907    |    69381   
        7  | 15:25.07 |  2:40.69 |     69382    |    81450   
        8  | 18:06.01 |  2:21.19 |     81451    |    92044   
        9  | 20:27.20 |  2:23.68 |     92045    |   102837   
       10  | 22:51.13 |  2:23.68 |    102838    |   113630   
       11  | 25:15.06 |  3:24.44 |    113631    |   128974   
       12  | 28:39.50 |  1:58.57 |    128975    |   137881   
       13  | 30:38.32 |  2:34.31 |    137882    |   149462   
       14  | 33:12.63 |  3:39.68 |    149463    |   165955   
       15  | 36:52.56 |  3:05.17 |    165956    |   179847   
       16  | 39:57.73 |  2:29.42 |    179848    |   191064   
       17  | 42:27.40 |  2:35.27 |    191065    |   202716   


Range status and errors

Selected range

     Filename D:\Сборники (Flac)\VA - Pure... 50s (2012) 4CD (Flac+cue)\CD3\Various Artists - Pure... 50s CD3.wav

     Peak level 98.8 %
     Extraction speed 4.5 X
     Range quality 100.0 %
     Test CRC 08161FD6
     Copy CRC 08161FD6
     Copy OK

No errors occurred

 
AccurateRip summary
 
Track  1  cannot be verified as accurate (confidence 1)  [9C0904AA], AccurateRip returned [7E612DAF]  (AR v2)
Track  2  cannot be verified as accurate (confidence 1)  [1A73A1B9], AccurateRip returned [FD5AF8B6]  (AR v2)
Track  3  cannot be verified as accurate (confidence 1)  [958B77BF], AccurateRip returned [855F1307]  (AR v2)
Track  4  cannot be verified as accurate (confidence 1)  [74AA1DF4], AccurateRip returned [064DF5B8]  (AR v2)
Track  5  cannot be verified as accurate (confidence 1)  [E5038493], AccurateRip returned [FAABD086]  (AR v2)
Track  6  cannot be verified as accurate (confidence 1)  [3B8818C0], AccurateRip returned [E2807713]  (AR v2)
Track  7  cannot be verified as accurate (confidence 1)  [A403F840], AccurateRip returned [2A7F3172]  (AR v2)
Track  8  cannot be verified as accurate (confidence 1)  [EC3ACB3C], AccurateRip returned [613F2610]  (AR v2)
Track  9  cannot be verified as accurate (confidence 1)  [C54A88F9], AccurateRip returned [93129432]  (AR v2)
Track 10  cannot be verified as accurate (confidence 1)  [2C3A435C], AccurateRip returned [9594869E]  (AR v2)
Track 11  cannot be verified as accurate (confidence 1)  [B509EDC9], AccurateRip returned [9BCFF54F]  (AR v2)
Track 12  cannot be verified as accurate (confidence 1)  [785DF767], AccurateRip returned [FA637ABB]  (AR v2)
Track 13  cannot be verified as accurate (confidence 1)  [5AFF9659], AccurateRip returned [AB8F4756]  (AR v2)
Track 14  cannot be verified as accurate (confidence 1)  [F3D77D69], AccurateRip returned [BEAC18A7]  (AR v2)
Track 15  cannot be verified as accurate (confidence 1)  [D13546FF], AccurateRip returned [9A799C16]  (AR v2)
Track 16  cannot be verified as accurate (confidence 1)  [3ACB8425], AccurateRip returned [5E0B2854]  (AR v2)
Track 17  cannot be verified as accurate (confidence 1)  [981C94A1], AccurateRip returned [B2C21CA6]  (AR v2)
 
No tracks could be verified as accurate
You may have a different pressing from the one(s) in the database

End of status report

---- CUETools DB Plugin V2.1.3

[CTDB TOCID: gOj3yO8rJAeoFmLViZ.zDXb_YS0-] found, Submit result: gOj3yO8rJAeoFmLViZ.zDXb_YS0- has been confirmed
[0dfa8418] (1/1) Accurately ripped


==== Log checksum 7AA665F50AE97B080C786E71EDEA1D851DF17B622198ECB4286500A60263AC23 ====



Create a new paste based on this one


Comments: