[ create a new paste ] login | about

Link: http://codepad.org/gBEW1VKx    [ raw code | fork ]

Plain Text, pasted on May 14:
foobar2000 1.3.17 / Dynamic Range Meter 1.1.1
log date: 2018-05-14 11:46:16

--------------------------------------------------------------------------------
Analyzed: Pete Townshend / Scoop
--------------------------------------------------------------------------------

DR         Peak         RMS     Duration Track
--------------------------------------------------------------------------------
DR8        0.00 dB   -10.64 dB      4:44 01-So Sad About Us / Brr
DR9        0.00 dB   -10.81 dB      2:27 02-Squeeze Box
DR9        0.00 dB   -10.24 dB      2:25 03-Zelda
DR8        0.00 dB    -8.79 dB      3:37 04-Politician
DR8        0.00 dB    -9.04 dB      2:08 05-Dirty Water
DR8        0.00 dB    -9.85 dB      2:11 06-Circles (Instant Party)
DR12       0.00 dB   -14.34 dB      1:01 07-Piano: Tipperary
DR10       0.00 dB   -12.27 dB      2:34 08-Unused Piano: Quadrophenia
DR8        0.00 dB    -9.37 dB      3:17 09-Melancholia
DR9        0.00 dB   -11.46 dB      4:14 10-Bargain
DR9        0.00 dB   -10.69 dB      2:25 11-Things Have Changed
DR8        0.00 dB    -9.43 dB      2:29 12-Popular
DR9        0.00 dB   -11.29 dB      3:28 13-Behind Blue Eyes
DR9        0.00 dB   -11.49 dB      4:22 14-Magic Bus
DR8        0.00 dB    -9.43 dB      3:44 15-Cache Cache
DR8        0.00 dB    -9.42 dB      3:21 16-Cookin'
DR8        0.00 dB    -8.74 dB      4:19 17-You're So Clever
DR9        0.00 dB   -10.42 dB      1:30 18-Body Language
DR8        0.00 dB   -10.10 dB      1:55 19-Initial Machine Experiments
DR9        0.00 dB   -10.58 dB      3:20 20-Mary
DR10      -4.94 dB   -19.54 dB      1:19 21-Recorders
DR7        0.00 dB    -9.46 dB      2:55 22-Goin' Fishin'
DR9        0.00 dB   -11.72 dB      2:01 23-To Barney Kessell
DR9        0.00 dB   -11.42 dB      4:07 24-You Came Back
DR8        0.00 dB   -11.45 dB      4:59 25-Love Reign O'er Me
--------------------------------------------------------------------------------

Number of tracks:  25
Official DR value: DR9

Samplerate:        96000 Hz
Channels:          2
Bits per sample:   24
Bitrate:           3103 kbps
Codec:             FLAC
================================================================================




Create a new paste based on this one


Comments: