[ create a new paste ] login | about

Link: http://codepad.org/gFg68EL3    [ raw code | fork ]

Plain Text, pasted on Aug 13:
Exact Audio Copy V1.0 beta 2 from 29. April 2011

EAC extraction logfile from 19. August 2011, 13:06

The Seeds / Future

Used drive  : HL-DT-STDVDRAM GSA-H60N   Adapter: 2  ID: 0

Read mode               : Secure
Utilize accurate stream : Yes
Defeat audio cache      : Yes
Make use of C2 pointers : No

Read offset correction                      : 667
Overread into Lead-In and Lead-Out          : No
Fill up missing offset samples with silence : Yes
Delete leading and trailing silent blocks   : No
Null samples used in CRC calculations       : Yes
Used interface                              : Native Win32 interface for Win NT & 2000

Used output format : Internal WAV Routines
Sample format      : 44.100 Hz; 16 Bit; Stereo


TOC of the extracted CD

     Track |   Start  |  Length  | Start sector | End sector 
    ---------------------------------------------------------
        1  |  0:00.00 |  1:04.20 |         0    |     4819   
        2  |  1:04.20 |  1:52.08 |      4820    |    13227   
        3  |  2:56.28 |  3:14.08 |     13228    |    27785   
        4  |  6:10.36 |  2:17.64 |     27786    |    38124   
        5  |  8:28.25 |  3:26.09 |     38125    |    53583   
        6  | 11:54.34 |  3:32.49 |     53584    |    69532   
        7  | 15:27.08 |  3:23.70 |     69533    |    84827   
        8  | 18:51.03 |  2:33.09 |     84828    |    96311   
        9  | 21:24.12 |  3:17.09 |     96312    |   111095   
       10  | 24:41.21 |  2:55.67 |    111096    |   124287   
       11  | 27:37.13 |  3:14.50 |    124288    |   138887   
       12  | 30:51.63 |  7:46.47 |    138888    |   173884   
       13  | 38:38.35 |  2:51.52 |    173885    |   186761   
       14  | 41:30.12 |  3:14.28 |    186762    |   201339   


Range status and errors

Selected range

     Filename C:\The Seeds\1967 Future (Hayabusa Landings Japan Mini LP 2011)\The Seeds - Future.wav

     Peak level 99.2 %
     Extraction speed 5.6 X
     Range quality 99.9 %
     Test CRC A8C31DDD
     Copy CRC A8C31DDD
     Copy OK

No errors occurred

 
AccurateRip summary
 
Track  1  accurately ripped (confidence 1)  [9101C99C]  (AR v2)
Track  2  accurately ripped (confidence 1)  [4C0E1F66]  (AR v2)
Track  3  accurately ripped (confidence 1)  [DBAC334C]  (AR v2)
Track  4  accurately ripped (confidence 1)  [DC3C958D]  (AR v2)
Track  5  accurately ripped (confidence 1)  [CBF68569]  (AR v2)
Track  6  accurately ripped (confidence 1)  [4EE5F26C]  (AR v2)
Track  7  accurately ripped (confidence 1)  [D3B3E32B]  (AR v2)
Track  8  accurately ripped (confidence 1)  [4FD9760B]  (AR v2)
Track  9  accurately ripped (confidence 1)  [CD4D4BCC]  (AR v2)
Track 10  accurately ripped (confidence 1)  [135B8DF4]  (AR v2)
Track 11  accurately ripped (confidence 1)  [9AF555E1]  (AR v2)
Track 12  accurately ripped (confidence 1)  [21C91963]  (AR v2)
Track 13  accurately ripped (confidence 1)  [B9B60B61]  (AR v2)
Track 14  accurately ripped (confidence 1)  [6ED1B411]  (AR v2)
 
All tracks accurately ripped

End of status report

==== Log checksum F266D3BD0AD04C2AA9CE114C948387EF833409D36F8A9782633D0A5554DE7578 ====



Create a new paste based on this one


Comments: