[ create a new paste ] login | about

Link: http://codepad.org/gK1HtLZL    [ raw code | fork ]

Plain Text, pasted on Aug 25:
foobar2000 1.1.11 / Dynamic Range Meter 1.1.1
log date: 2012-08-04 22:50:39

--------------------------------------------------------------------------------
Analyzed: Incubus / A Crow Left Of The Murder... (Hybrid SACD)
--------------------------------------------------------------------------------

DR         Peak         RMS     Duration Track
--------------------------------------------------------------------------------
DR5       -0.17 dB    -7.57 dB      4:55 01-Megalomaniac
DR5       -0.17 dB    -6.52 dB      3:31 02-A Crow Left Of The Murder
DR5       -0.12 dB    -6.85 dB      3:53 03-Agoraphobia
DR5       -0.21 dB    -6.98 dB      3:49 04-Talk Shows On Mute
DR5       -0.16 dB    -7.21 dB      3:49 05-Beware! Criminal
DR6       -0.12 dB    -7.80 dB      6:23 06-Sick Sad Little World
DR4       -0.18 dB    -6.13 dB      4:24 07-Pistola
DR6       -0.01 dB    -7.44 dB      3:41 08-Southern Girl
DR6       -0.27 dB    -7.65 dB      4:08 09-Priceless
DR5       -0.11 dB    -6.89 dB      3:52 10-Zee Deveel
DR5       -0.23 dB    -7.12 dB      3:38 11-Made For TV Movie
DR6       -0.25 dB    -7.30 dB      3:59 12-Smile Lines
DR6       -0.18 dB    -8.08 dB      4:20 13-Here In My Room
DR6       -0.24 dB    -7.56 dB      4:19 14-Leech
--------------------------------------------------------------------------------

Number of tracks:  14
Official DR value: DR5

Samplerate:        88200 Hz
Channels:          2
Bits per sample:   24
Bitrate:           2903 kbps
Codec:             FLAC
================================================================================




Create a new paste based on this one


Comments: