[ create a new paste ] login | about

Link: http://codepad.org/gMwbVzrm    [ raw code | fork ]

Plain Text, pasted on Aug 1:
Exact Audio Copy V1.0 beta 3 from 29. August 2011

EAC extraction logfile from 14. October 2013, 20:01

The Beatles / Beatles For Sale 

Used drive  : PLEXTOR DVDR   PX-891SA   Adapter: 1  ID: 0

Read mode               : Secure
Utilize accurate stream : Yes
Defeat audio cache      : Yes
Make use of C2 pointers : No

Read offset correction                      : 6
Overread into Lead-In and Lead-Out          : No
Fill up missing offset samples with silence : Yes
Delete leading and trailing silent blocks   : No
Null samples used in CRC calculations       : Yes
Used interface                              : Native Win32 interface for Win NT & 2000

Used output format              : User Defined Encoder
Selected bitrate                : 1024 kBit/s
Quality                         : High
Add ID3 tag                     : No
Command line compressor         : C:\Program Files\Exact Audio Copy\Flac\flac.exe
Additional command line options : -V -8 -T "Genre=%genre%" -T "Artist=%artist%" -T "Title=%title%" -T "Album=%albumtitle%" -T "Date=%year%" -T "Tracknumber=%tracknr%" -T "Comment=%comment%" %source%


TOC of the extracted CD

     Track |   Start  |  Length  | Start sector | End sector 
    ---------------------------------------------------------
        1  |  0:00.00 |  2:16.05 |         0    |    10204   
        2  |  2:16.05 |  2:30.02 |     10205    |    21456   
        3  |  4:46.07 |  2:04.39 |     21457    |    30795   
        4  |  6:50.46 |  2:31.21 |     30796    |    42141   
        5  |  9:21.67 |  1:48.64 |     42142    |    50305   
        6  | 11:10.56 |  2:38.47 |     50306    |    62202   
        7  | 13:49.28 |  2:38.11 |     62203    |    74063   
        8  | 16:27.39 |  2:43.45 |     74064    |    86333   
        9  | 19:11.09 |  2:04.24 |     86334    |    95657   
       10  | 21:15.33 |  2:57.32 |     95658    |   108964   
       11  | 24:12.65 |  2:03.60 |    108965    |   118249   
       12  | 26:16.50 |  2:34.35 |    118250    |   129834   
       13  | 28:51.10 |  2:30.03 |    129835    |   141087   
       14  | 31:21.13 |  2:26.00 |    141088    |   152037   
       15  | 36:19.13 | 25:04.11 |    163438    |   276248   


Range status and errors

Selected range

     Filename I:\dafnaplus\09.09.09\04 Beatles For Sale\The Beatles - Beatles For Sale.wav

     Peak level 96.7 %
     Extraction speed 6.6 X
     Range quality 99.9 %
     Test CRC EF4B7B0A
     Copy CRC EF4B7B0A
     Copy OK

No errors occurred

 
AccurateRip summary
 
Track  1  accurately ripped (confidence 200)  [A432EC13]  (AR v2)
Track  2  accurately ripped (confidence 200)  [81E5964C]  (AR v2)
Track  3  accurately ripped (confidence 200)  [97EAE485]  (AR v2)
Track  4  accurately ripped (confidence 200)  [F8407C84]  (AR v2)
Track  5  accurately ripped (confidence 200)  [2EB70F01]  (AR v2)
Track  6  accurately ripped (confidence 200)  [41E51F98]  (AR v2)
Track  7  accurately ripped (confidence 200)  [5D7EF3EB]  (AR v2)
Track  8  accurately ripped (confidence 200)  [09AFA4A9]  (AR v2)
Track  9  accurately ripped (confidence 200)  [92EFB11D]  (AR v2)
Track 10  accurately ripped (confidence 200)  [17A208B8]  (AR v2)
Track 11  accurately ripped (confidence 200)  [B491CE80]  (AR v2)
Track 12  accurately ripped (confidence 200)  [95FC4A98]  (AR v2)
Track 13  accurately ripped (confidence 200)  [96C75B20]  (AR v2)
Track 14  accurately ripped (confidence 200)  [CC31717D]  (AR v2)
 
All tracks accurately ripped

End of status report

==== Log checksum 8B899E73DB51D3CEB934FA52EBA1E06938E7C126015C60FB2A01CC57D65FCE35 ====



Create a new paste based on this one


Comments: