[ create a new paste ] login | about

Link: http://codepad.org/gOTWcviU    [ raw code | fork ]

Plain Text, pasted on Mar 14:
foobar2000 1.5 / Dynamic Range Meter 1.1.1
log date: 2020-03-14 18:01:10

--------------------------------------------------------------------------------
Analyzed: Alice in Chains / Total Music Immersion (1)
          Céline Dion / Total Music Immersion (2)
          Destiny's Child / Total Music Immersion (3)
          Diana Krall / Total Music Immersion (4)
          DJ Jean / Total Music Immersion (5)
          Earth Wind and Fire / Total Music Immersion (6)
          Fischer BFO / Total Music Immersion (7)
          Frankie goes to Hollywood / Total Music Immersion (8)
          Ginuwine / Total Music Immersion (9)
          Goldsmith LSO / Total Music Immersion (10)
          Groove Armada / Total Music Immersion (11)
          Guano Apes / Total Music Immersion (12)
          Herbert Grönemeyer / Total Music Immersion (13)
          James Taylor / Total Music Immersion (14)
          Kraaijenhof Spanjaard CCO Neth. Chamber Choir / Total Music Immersion (15)
          Spyro Gyra / Total Music Immersion (16)
--------------------------------------------------------------------------------

DR         Peak         RMS     Duration Track
--------------------------------------------------------------------------------
DR9       -6.24 dB   -16.12 dB      4:29 11-Man in the box
DR11      -3.03 dB   -18.01 dB      5:32 02-It's all coming back to me now
DR10      -4.17 dB   -16.73 dB      3:44 01-Independent women part I
DR14      -0.07 dB   -20.09 dB      4:43 14-The look of love
DR14      -1.13 dB   -21.83 dB      3:44 08-Love come home
DR11      -3.07 dB   -18.09 dB      3:26 12-Sing a song
DR19      -0.01 dB   -22.31 dB      2:59 16-Johann Strauss Long Live the Hungarians
DR13      -1.49 dB   -18.60 dB      4:00 09-Relax
DR11      -4.07 dB   -17.77 dB      4:16 05-2-way
DR13      -1.29 dB   -21.88 dB      1:48 15-Jerry Goldsmith theme from Papillon
DR14      -4.11 dB   -20.03 dB      6:03 06-Superstylin
DR12      -0.37 dB   -16.54 dB      3:33 10-No speech
DR11      -2.46 dB   -19.94 dB      4:03 04-Halt mich
DR11      -3.74 dB   -16.97 dB      3:28 13-Jump up behind me
DR19      -1.22 dB   -24.88 dB      4:40 03-Astor Piazzolla Adios Nonino
DR14      -1.65 dB   -17.38 dB      4:19 07-Florida Straits
--------------------------------------------------------------------------------

Number of tracks:  16
Official DR value: DR13

Samplerate:        88200 Hz
Channels:          6
Bits per sample:   24
Bitrate:           7885 kbps
Codec:             FLAC
================================================================================




Create a new paste based on this one


Comments: