[ create a new paste ] login | about

Link: http://codepad.org/gRWToPLU    [ raw code | fork ]

Plain Text, pasted on Aug 30:
Exact Audio Copy V1.3 from 2. September 2016

EAC extraction logfile from 16. August 2019, 7:22

Climax Chicago Blues Band / The Climax Chicago Blues Band

Used drive  : PLEXTOR BD-R  PX-B950SA   Adapter: 1  ID: 1

Read mode               : Secure
Utilize accurate stream : Yes
Defeat audio cache      : Yes
Make use of C2 pointers : No

Read offset correction                      : 6
Overread into Lead-In and Lead-Out          : No
Fill up missing offset samples with silence : Yes
Delete leading and trailing silent blocks   : No
Null samples used in CRC calculations       : Yes
Used interface                              : Native Win32 interface for Win NT & 2000

Used output format : Internal WAV Routines
Sample format      : 44.100 Hz; 16 Bit; Stereo


TOC of the extracted CD

     Track |   Start  |  Length  | Start sector | End sector 
    ---------------------------------------------------------
        1  |  0:00.00 |  3:51.68 |         0    |    17392   
        2  |  3:51.68 |  3:49.29 |     17393    |    34596   
        3  |  7:41.22 |  3:02.56 |     34597    |    48302   
        4  | 10:44.03 |  2:28.20 |     48303    |    59422   
        5  | 13:12.23 |  3:18.20 |     59423    |    74292   
        6  | 16:30.43 |  3:20.55 |     74293    |    89347   
        7  | 19:51.23 |  3:07.72 |     89348    |   103444   
        8  | 22:59.20 |  4:16.04 |    103445    |   122648   
        9  | 27:15.24 |  2:57.73 |    122649    |   135996   
       10  | 30:13.22 |  2:50.21 |    135997    |   148767   
       11  | 33:03.43 |  8:40.52 |    148768    |   187819   
       12  | 41:44.20 |  2:44.02 |    187820    |   200121   
       13  | 44:28.22 |  3:24.06 |    200122    |   215427   
       14  | 47:52.28 |  1:34.68 |    215428    |   222545   
       15  | 49:27.21 |  5:35.70 |    222546    |   247740   
       16  | 55:03.16 |  2:54.06 |    247741    |   260796   
       17  | 57:57.22 |  0:57.65 |    260797    |   265136   
       18  | 58:55.12 |  4:10.61 |    265137    |   283947   
       19  | 63:05.73 |  5:33.27 |    283948    |   308949   


Range status and errors

Selected range

     Filename C:\Climax Blues Band\2019 The Albums 1969-1972 (5CD Box Set Esoteric Records)\1969 The Climax Chicago Blues Band\The Climax Chicago Blues Band.wav

     Peak level 99.4 %
     Extraction speed 7.6 X
     Range quality 100.0 %
     Test CRC B63DE115
     Copy CRC B63DE115
     Copy OK

No errors occurred

 
AccurateRip summary
 
Track  1  cannot be verified as accurate (confidence 7)  [F48D3363], AccurateRip returned [AFB3CE57]  (AR v2)
Track  2  cannot be verified as accurate (confidence 7)  [4A62DC97], AccurateRip returned [74C3BBB6]  (AR v2)
Track  3  cannot be verified as accurate (confidence 7)  [5AC7E9CE], AccurateRip returned [CB0442DF]  (AR v2)
Track  4  cannot be verified as accurate (confidence 7)  [80864132], AccurateRip returned [66E31A5D]  (AR v2)
Track  5  cannot be verified as accurate (confidence 7)  [26CA27A5], AccurateRip returned [42F81E4A]  (AR v2)
Track  6  cannot be verified as accurate (confidence 7)  [153E4071], AccurateRip returned [77B6CAA5]  (AR v2)
Track  7  cannot be verified as accurate (confidence 7)  [DA16A5DE], AccurateRip returned [08D0B68D]  (AR v2)
Track  8  cannot be verified as accurate (confidence 7)  [9A93C969], AccurateRip returned [5B59BCEB]  (AR v2)
Track  9  cannot be verified as accurate (confidence 7)  [7A14AA5B], AccurateRip returned [38B06372]  (AR v2)
Track 10  cannot be verified as accurate (confidence 7)  [E9287CF7], AccurateRip returned [56321354]  (AR v2)
Track 11  cannot be verified as accurate (confidence 7)  [23D5F52E], AccurateRip returned [F67031A6]  (AR v2)
Track 12  cannot be verified as accurate (confidence 7)  [3FA8E979], AccurateRip returned [310D015B]  (AR v2)
Track 13  cannot be verified as accurate (confidence 7)  [625D2CCE], AccurateRip returned [40831D24]  (AR v2)
Track 14  cannot be verified as accurate (confidence 7)  [23950FB8], AccurateRip returned [1715341B]  (AR v2)
Track 15  cannot be verified as accurate (confidence 7)  [1E704D99], AccurateRip returned [2CBFAED3]  (AR v2)
Track 16  cannot be verified as accurate (confidence 7)  [B5D2E11E], AccurateRip returned [B6FB3899]  (AR v2)
Track 17  cannot be verified as accurate (confidence 6)  [A4002E01], AccurateRip returned [388A1200]  (AR v2)
Track 18  cannot be verified as accurate (confidence 7)  [24C6C1C1], AccurateRip returned [55F4EB24]  (AR v2)
Track 19  cannot be verified as accurate (confidence 7)  [71DD0066], AccurateRip returned [4AC6D527]  (AR v2)
 
No tracks could be verified as accurate
You may have a different pressing from the one(s) in the database

End of status report

---- CUETools DB Plugin V2.1.6

[CTDB TOCID: I9..EXkUOGpV0qwoFvKge7Xs6DI-] found
Submit result: I9..EXkUOGpV0qwoFvKge7Xs6DI- has been confirmed
Track | CTDB Status
  1   | (13/13) Accurately ripped
  2   | (13/13) Accurately ripped
  3   | (13/13) Accurately ripped
  4   | (13/13) Accurately ripped
  5   | (13/13) Accurately ripped
  6   | (13/13) Accurately ripped
  7   | (13/13) Accurately ripped
  8   | (13/13) Accurately ripped
  9   | (13/13) Accurately ripped
 10   | (13/13) Accurately ripped
 11   | (13/13) Accurately ripped
 12   | (13/13) Accurately ripped
 13   | (13/13) Accurately ripped
 14   | (13/13) Accurately ripped
 15   | (13/13) Accurately ripped
 16   | (13/13) Accurately ripped
 17   | (13/13) Accurately ripped
 18   | (13/13) Accurately ripped
 19   | (13/13) Accurately ripped


==== Log checksum 76ABA6AAF5FA5E79202BF1B865D356541567329B9D3A7EC57E24EA1943401C9C ====



Create a new paste based on this one


Comments: