[ create a new paste ] login | about

Link: http://codepad.org/gRZ4IiUS    [ raw code | fork ]

Plain Text, pasted on Jun 17:
Exact Audio Copy V0.99 prebeta 5 from 4. May 2009

EAC extraction logfile from 17. October 2009, 15:53

Yes / 90125  (2009 Audio Fidelity Gold)

Used drive  : _NEC    DVD_RW ND-3500AG   Adapter: 0  ID: 2

Read mode               : Secure
Utilize accurate stream : Yes
Defeat audio cache      : Yes
Make use of C2 pointers : No

Read offset correction                      : 48
Overread into Lead-In and Lead-Out          : No
Fill up missing offset samples with silence : Yes
Delete leading and trailing silent blocks   : No
Null samples used in CRC calculations       : Yes
Used interface                              : Installed external ASPI interface

Used output format : Internal WAV Routines
Sample format      : 44.100 Hz; 16 Bit; Stereo


TOC of the extracted CD

     Track |   Start  |  Length  | Start sector | End sector 
    ---------------------------------------------------------
        1  |  0:00.00 |  4:30.27 |         0    |    20276   
        2  |  4:30.27 |  5:17.56 |     20277    |    44107   
        3  |  9:48.08 |  5:29.45 |     44108    |    68827   
        4  | 15:17.53 |  6:23.59 |     68828    |    97611   
        5  | 21:41.37 |  2:07.63 |     97612    |   107199   
        6  | 23:49.25 |  4:13.33 |    107200    |   126207   
        7  | 28:02.58 |  4:17.47 |    126208    |   145529   
        8  | 32:20.30 |  4:52.45 |    145530    |   167474   
        9  | 37:13.00 |  7:40.43 |    167475    |   202017   


Range status and errors

Selected range

     Filename M:\KillerRips\Yes - 90125\Yes - 90125  (2009 Audio Fidelity Gold).wav

     Peak level 100.0 %
     Range quality 100.0 %
     Test CRC F3167675
     Copy CRC F3167675
     Copy OK

No errors occurred

End of status report



Create a new paste based on this one


Comments: