[ create a new paste ] login | about

Link: http://codepad.org/gS6BA5t2    [ raw code | fork ]

Plain Text, pasted on Dec 6:
foobar2000 1.3.16 / Dynamic Range Meter 1.1.1
log date: 2017-12-06 09:07:20

--------------------------------------------------------------------------------
Analyzed: Kraftwerk / 3-D The Catalogue - Concert Disk 2 (7.1 Surround)
--------------------------------------------------------------------------------

DR         Peak         RMS     Duration Track
--------------------------------------------------------------------------------
DR15      -0.02 dB   -19.28 dB      2:58 01-Numbers
DR14      -0.02 dB   -19.78 dB      3:23 02-Computer World
DR14      -0.02 dB   -21.93 dB      1:03 03-It's More Fun To Compute
DR15      -0.02 dB   -20.37 dB      5:10 04-Home Computer
DR14      -1.60 dB   -19.59 dB      6:35 05-Computer Love
DR18      -0.69 dB   -20.49 dB      3:26 06-Pocket Calculator
DR16      -0.13 dB   -21.44 dB      3:10 07-Dentaku
DR14      -2.17 dB   -21.42 dB      3:50 08-Electric Cafe
DR14      -0.66 dB   -19.33 dB      2:45 09-The Telephone Call
DR15      -0.86 dB   -21.09 dB      2:30 10-House Phone
DR15      -0.81 dB   -21.73 dB      5:31 11-Sex Object
DR16      -0.51 dB   -21.52 dB      2:33 12-Boing Boom Tschak
DR15      -2.47 dB   -21.60 dB      2:46 13-Techno Pop
DR16      -0.41 dB   -20.19 dB      7:45 14-Music Non Stop
DR16      -1.46 dB   -22.96 dB      7:46 15-The Robots
DR14      -1.60 dB   -19.59 dB      6:35 16-Computer Love
DR18      -0.69 dB   -20.49 dB      3:26 17-Pocket Calculator
DR16      -0.13 dB   -21.44 dB      3:10 18-Dentaku
DR15      -0.02 dB   -20.99 dB     14:28 19-Autobahn
DR17      -9.93 dB   -34.28 dB      0:31 20-Geigercounter
DR15      -0.16 dB   -20.21 dB      6:18 21-Radioactivity
DR16      -0.31 dB   -21.00 dB      3:21 22-Trans Europe Express
DR16      -0.02 dB   -21.65 dB      2:08 23-Metal On Metal
DR14      -0.02 dB   -21.42 dB      2:26 24-Abzug
DR15      -0.02 dB   -20.59 dB      6:13 25-Home Computer
DR16      -0.51 dB   -21.52 dB      2:33 26-Boing Boom Tschak
DR15      -2.47 dB   -21.60 dB      2:46 27-Techno Pop
DR16      -0.41 dB   -20.19 dB      7:45 28-Music Non Stop
DR16      -0.02 dB   -20.88 dB      7:53 29-Planet Of Visions
DR13      -0.68 dB   -20.43 dB      4:18 30-Tour De France
DR13      -0.68 dB   -18.02 dB      0:27 31-Prologue
DR13      -0.30 dB   -18.05 dB      3:46 32-Etape 1
DR14      -0.78 dB   -19.11 dB      1:12 33-Chrono
DR15      -0.02 dB   -17.40 dB      5:00 34-Etape 2
DR14      -0.18 dB   -20.12 dB      5:55 35-Vitamin
DR15      -0.02 dB   -19.49 dB      6:01 36-Aero Dynamik
DR16      -0.02 dB   -19.50 dB      4:38 37-Elektro Kardiogramm
DR14      -0.32 dB   -21.50 dB      6:19 38-La Forme
DR12      -0.95 dB   -27.34 dB      0:29 39-Regeneration
--------------------------------------------------------------------------------

Number of tracks:  39
Official DR value: DR15

Samplerate:        48000 Hz
Channels:          8
Bits per sample:   24
Bitrate:           2765 kbps
Codec:             FLAC
================================================================================




Create a new paste based on this one


Comments: