[ create a new paste ] login | about

Link: http://codepad.org/gTUobx4n    [ raw code | fork ]

Plain Text, pasted on Aug 10:
foobar2000 1.3.8 / Dynamic Range Meter 1.1.1
log date: 2015-07-07 15:38:21

--------------------------------------------------------------------------------
Analyzed: Air Supply / The Definitive Collection (2003 Hybrid SACD)
--------------------------------------------------------------------------------

DR         Peak         RMS     Duration Track
--------------------------------------------------------------------------------
DR11      -0.60 dB   -14.45 dB      3:54 01-Lost In Love
DR11      -0.91 dB   -15.55 dB      4:03 02-All Out Of Love
DR8       -2.65 dB   -13.78 dB      3:34 03-Chances
DR8       -2.35 dB   -13.16 dB      3:31 04-Every Woman In The World
DR11      -0.51 dB   -15.36 dB      4:17 05-The One That You Love
DR11      -0.54 dB   -15.77 dB      3:49 06-Here I Am
DR10      -0.01 dB   -14.14 dB      5:21 07-Sweet Dreams
DR11      -2.16 dB   -17.25 dB      3:39 08-I Want To Give It All
DR8       -1.17 dB   -11.96 dB      3:59 09-Even The Nights Are Better
DR11      -0.30 dB   -14.97 dB      3:51 10-Now And Forever
DR11      -0.45 dB   -14.41 dB      3:53 11-Young Love
DR11      -0.46 dB   -14.26 dB      4:01 12-Two Less Lonely People
DR12      -0.92 dB   -16.94 dB      4:11 13-Taking The Chance
DR11      -0.53 dB   -15.22 dB      4:01 14-Come What May
DR10      -0.31 dB   -13.22 dB      5:43 15-Making Love Out Of Nothing At All
DR11      -0.49 dB   -14.42 dB      5:11 16-I Can Wait Forever
DR10      -0.74 dB   -13.73 dB      4:46 17-Just As I Am
DR13      -0.57 dB   -16.19 dB      5:32 18-Lost In Love (Original Australian Release)
--------------------------------------------------------------------------------

Number of tracks:  18
Official DR value: DR10

Samplerate:        88200 Hz
Channels:          2
Bits per sample:   24
Bitrate:           2780 kbps
Codec:             FLAC
================================================================================




Create a new paste based on this one


Comments: