[ create a new paste ] login | about

Link: http://codepad.org/gWLNfmRb    [ raw code | fork ]

Plain Text, pasted on Dec 21:
foobar2000 1.6 / Dynamic Range Meter 1.1.1
log date: 2020-12-21 19:15:04

--------------------------------------------------------------------------------
Analyzed: Vox Aurea / Sanna Salminen / Matkalla Jouluun / A Journey Into Christmas (Hybrid SACD)
--------------------------------------------------------------------------------

DR         Peak         RMS     Duration Track
--------------------------------------------------------------------------------
DR13      -3.00 dB   -21.82 dB      3:27 01-Tulemme Jeesus Pienoises
DR12      -0.17 dB   -19.88 dB      2:45 02-O Scholares, Voce Pares / Gaudete
DR12      -3.91 dB   -21.57 dB      3:07 03-Psallat Scholarum (Jo Valkee Aamun Tullen Yö)
DR13      -0.43 dB   -19.13 dB      2:28 04-Joulun Kellot
DR13      -2.35 dB   -21.78 dB      2:14 05-Hetki Hiljaisuutta
DR14      -5.92 dB   -23.70 dB      1:41 06-Kilisee, Kilisee Kulkunen
DR16      -0.45 dB   -21.60 dB      3:30 07-Varpunen Jouluaamuna
DR12      -2.17 dB   -25.29 dB      2:10 08-Enkelten Laulu
DR13      -6.24 dB   -23.12 dB      2:08 09-A Minuit Fut Fait Un Réveil (Oi Jouluyö)
DR13      -2.71 dB   -20.22 dB      3:21 10-Quanno Nascette Ninno (Kun Syntyi Lapsonen)
DR11      -0.43 dB   -16.98 dB      2:38 11-Ding Dong! Merrily On High
DR12      -0.42 dB   -18.53 dB      2:12 12-Mary Had A Baby
DR13      -3.03 dB   -18.22 dB      2:11 13-Ilo Täytti Maailman (Sweet Little Jesus Baby)
DR13      -0.65 dB   -17.18 dB      2:53 14-La Jornada (Matkalla)
DR13      -4.07 dB   -19.68 dB      2:39 15-La Jornada (Matkalla)
DR14      -0.44 dB   -17.24 dB      2:54 16-Bolingo Bwa Nzambe
DR11      -0.01 dB   -14.69 dB      1:44 17-Singaba Hamba Yothina / A Child Is Born To Us
DR15      -0.43 dB   -21.98 dB      3:45 18-Jouluyö, Juhlayö (Stille Nacht, Heilige Nacht)
DR10      -0.41 dB   -14.53 dB      5:15 19-Oi Jouluyö (O Holy Night)
--------------------------------------------------------------------------------

Number of tracks:  19
Official DR value: DR13

Samplerate:        88200 Hz
Channels:          2
Bits per sample:   24
Bitrate:           2441 kbps
Codec:             FLAC
================================================================================




Create a new paste based on this one


Comments: