[ create a new paste ] login | about

Link: http://codepad.org/gYJbEmtZ    [ raw code | fork ]

Plain Text, pasted on Feb 24:
Exact Audio Copy V1.3 from 2. September 2016

EAC extraction logfile from 8. January 2017, 14:36

Chic / Chic

Used drive  : PIONEER DVD-RW  DVR-112D   Adapter: 1  ID: 1

Read mode               : Secure
Utilize accurate stream : Yes
Defeat audio cache      : Yes
Make use of C2 pointers : No

Read offset correction                      : 48
Overread into Lead-In and Lead-Out          : No
Fill up missing offset samples with silence : Yes
Delete leading and trailing silent blocks   : No
Null samples used in CRC calculations       : Yes
Used interface                              : Native Win32 interface for Win NT & 2000
Gap handling                                : Appended to previous track

Used output format              : User Defined Encoder
Selected bitrate                : 1024 kBit/s
Quality                         : High
Add ID3 tag                     : No
Command line compressor         : C:\Program Files (x86)\Exact Audio Copy\Flac\flac.exe
Additional command line options : -8 -V -T "ARTIST=%artist%" -T "TITLE=%title%" -T "ALBUM=%albumtitle%" -T "DATE=%year%" -T "TRACKNUMBER=%tracknr%" -T "TOTALTRACKS=%numtracks%" -T "GENRE=%genre%" -T "ALBUMARTIST=%albumartist%" -T "ALBUM ARTIST=%albumartist%" -T "COMMENT=EAC Secure Mode, Test & Copy, AccurateRip, FLAC -8" %source%


TOC of the extracted CD

     Track |   Start  |  Length  | Start sector | End sector 
    ---------------------------------------------------------
        1  |  0:00.00 |  8:20.23 |         0    |    37522   
        2  |  8:20.23 |  5:01.56 |     37523    |    60153   
        3  | 13:22.04 |  5:40.46 |     60154    |    85699   
        4  | 19:02.50 |  6:41.67 |     85700    |   115841   
        5  | 25:44.42 |  3:54.25 |    115842    |   133416   
        6  | 29:38.67 |  4:29.25 |    133417    |   153616   
        7  | 34:08.17 |  4:32.61 |    153617    |   174077   


Track  1

     Filename L:\2017\FLAC\Chic - Original Album Series (2011) [FLAC] (5CD Rhino Records 8122797595)\CD1 - Chic (1977)\01 - Dance, Dance, Dance (Yowsah, Yowsah, Yowsah).wav

     Pre-gap length  0:00:02.00

     Peak level 76.7 %
     Extraction speed 4.6 X
     Track quality 99.9 %
     Test CRC 1DBE5243
     Copy CRC 1DBE5243
     Accurately ripped (confidence 57)  [0ED21C10]  (AR v2)
     Copy OK

Track  2

     Filename L:\2017\FLAC\Chic - Original Album Series (2011) [FLAC] (5CD Rhino Records 8122797595)\CD1 - Chic (1977)\02 - Sao Paulo.wav

     Peak level 71.5 %
     Extraction speed 4.9 X
     Track quality 99.9 %
     Test CRC F0B51E73
     Copy CRC F0B51E73
     Accurately ripped (confidence 58)  [D6CD37D9]  (AR v2)
     Copy OK

Track  3

     Filename L:\2017\FLAC\Chic - Original Album Series (2011) [FLAC] (5CD Rhino Records 8122797595)\CD1 - Chic (1977)\03 - You Can Get By.wav

     Peak level 98.8 %
     Extraction speed 5.4 X
     Track quality 99.9 %
     Test CRC 09183AA7
     Copy CRC 09183AA7
     Accurately ripped (confidence 58)  [B30053B6]  (AR v2)
     Copy OK

Track  4

     Filename L:\2017\FLAC\Chic - Original Album Series (2011) [FLAC] (5CD Rhino Records 8122797595)\CD1 - Chic (1977)\04 - Everybody Dance.wav

     Peak level 99.2 %
     Extraction speed 6.5 X
     Track quality 100.0 %
     Test CRC CF08A8DE
     Copy CRC CF08A8DE
     Accurately ripped (confidence 58)  [1C22260B]  (AR v2)
     Copy OK

Track  5

     Filename L:\2017\FLAC\Chic - Original Album Series (2011) [FLAC] (5CD Rhino Records 8122797595)\CD1 - Chic (1977)\05 - Est-Ce Que C'Est Chic.wav

     Peak level 69.5 %
     Extraction speed 6.5 X
     Track quality 100.0 %
     Test CRC 14AF869C
     Copy CRC 14AF869C
     Accurately ripped (confidence 58)  [330568E2]  (AR v2)
     Copy OK

Track  6

     Filename L:\2017\FLAC\Chic - Original Album Series (2011) [FLAC] (5CD Rhino Records 8122797595)\CD1 - Chic (1977)\06 - Falling in Love With You.wav

     Peak level 68.2 %
     Extraction speed 6.9 X
     Track quality 100.0 %
     Test CRC D4D354E6
     Copy CRC D4D354E6
     Accurately ripped (confidence 58)  [546CA6C7]  (AR v2)
     Copy OK

Track  7

     Filename L:\2017\FLAC\Chic - Original Album Series (2011) [FLAC] (5CD Rhino Records 8122797595)\CD1 - Chic (1977)\07 - Strike Up the Band.wav

     Peak level 77.1 %
     Extraction speed 7.2 X
     Track quality 100.0 %
     Test CRC 758FDD89
     Copy CRC 758FDD89
     Accurately ripped (confidence 57)  [3C522E4E]  (AR v2)
     Copy OK


All tracks accurately ripped

No errors occurred

End of status report

---- CUETools DB Plugin V2.1.6

[CTDB TOCID: 5Jr3EEQwATZdKWhO43XwbbpxMEk-] found
Submit result: already submitted
Track | CTDB Status
  1   | (83/84) Accurately ripped
  2   | (84/84) Accurately ripped
  3   | (84/84) Accurately ripped
  4   | (84/84) Accurately ripped
  5   | (84/84) Accurately ripped
  6   | (84/84) Accurately ripped
  7   | (83/84) Accurately ripped


==== Log checksum 1E890723309BABCCD4396DCE64E5BA85DC43AE6C34D4B3A8F8BF0BA636902397 ====



Create a new paste based on this one


Comments: