[ create a new paste ] login | about

Link: http://codepad.org/ga8feDmy    [ raw code | fork ]

Plain Text, pasted on Aug 21:
foobar2000 1.3.17 / Dynamic Range Meter 1.1.1
log date: 2018-08-21 09:57:43

--------------------------------------------------------------------------------
Analyzed: R.E.M. / Accelerate
--------------------------------------------------------------------------------

DR         Peak         RMS     Duration Track
--------------------------------------------------------------------------------
DR5       -0.31 dB    -5.75 dB      3:11 01-Living Well Is The Best Revenge
DR5        0.00 dB    -5.88 dB      2:33 02-Man-Sized Wreath
DR5       -0.13 dB    -5.94 dB      3:24 03-Supernatural Superserious
DR4       -0.06 dB    -7.82 dB      2:39 04-Hollow Man
DR5       -0.30 dB    -6.96 dB      2:05 05-Houston
DR5       -0.16 dB    -6.03 dB      3:34 06-Accelerate
DR5        0.00 dB    -8.31 dB      4:09 07-Until The Day Is Done
DR4       -0.30 dB    -5.72 dB      3:46 08-Mr. Richards
DR5       -0.42 dB    -7.41 dB      4:51 09-Sing For The Submarine
DR5       -0.10 dB    -6.09 dB      2:18 10-Horse To Water
DR5       -0.33 dB    -6.17 dB      2:08 11-I'm Gonna DJ
--------------------------------------------------------------------------------

Number of tracks:  11
Official DR value: DR5

Samplerate:        44100 Hz
Channels:          2
Bits per sample:   24
Bitrate:           1837 kbps
Codec:             FLAC
================================================================================




Create a new paste based on this one


Comments: