[ create a new paste ] login | about

Link: http://codepad.org/gc7X36Cd    [ raw code | fork ]

Plain Text, pasted on Dec 19:
[CUETools log; Date: 12/19/2018 7:54:44 AM; Version: 2.1.5]
[CTDB TOCID: 3beI7PvjDREo0kHaGPwWCDC3D28-] found.
Track | CTDB Status
  1   | (73/74) Accurately ripped
  2   | (73/74) Accurately ripped
  3   | (73/74) Accurately ripped
  4   | (73/74) Accurately ripped
  5   | (73/74) Accurately ripped
  6   | (73/74) Accurately ripped
  7   | (73/74) Accurately ripped
  8   | (73/74) Accurately ripped
  9   | (73/74) Accurately ripped
 10   | (73/74) Accurately ripped
[AccurateRip ID: 0012e1ca-0096aadd-6a0b810a] found.
Track   [  CRC   |   V2   ] Status
 01     [2a1a9f16|778667ca] (00+13/13) Accurately ripped
 02     [69c97751|2fa9e0c3] (00+13/13) Accurately ripped
 03     [d67dffff|c09af895] (00+13/13) Accurately ripped
 04     [0f406283|dfc38bd4] (00+13/13) Accurately ripped
 05     [a4235d1b|7a3d5d5f] (00+13/13) Accurately ripped
 06     [854bcf04|b51c6049] (00+13/13) Accurately ripped
 07     [eb2127d5|84b83c14] (00+13/13) Accurately ripped
 08     [681469dd|cd5d7885] (00+13/13) Accurately ripped
 09     [25c36ad1|d9c258b5] (00+13/13) Accurately ripped
 10     [7caedf54|d47cef08] (00+13/13) Accurately ripped

Track Peak [ CRC32  ] [W/O NULL] [  LOG   ]
 --   96.6 [56973991] [139D100D]   CRC32   
 01   96.6 [96D28C13] [4D81C129]           
 02   96.6 [F5E8E2B0] [8806A0BE]           
 03   96.6 [8DC7523C] [12324478]           
 04   96.6 [1473C3FF] [CB73A1DE]           
 05   96.6 [381B1007] [29C76148]           
 06   96.6 [8BA61927] [4D6F6C2F]           
 07   96.6 [6A71A73D] [E1A60A0D]           
 08   96.6 [8A613B2F] [6B9A52D0]           
 09   96.6 [9DC31E9C] [3B57CB37]           
 10   96.6 [ACC55A78] [864AD7DF]           



Create a new paste based on this one


Comments: