[ create a new paste ] login | about

Link: http://codepad.org/gfhpZz9B    [ raw code | fork ]

Plain Text, pasted on Jul 29:
foobar2000 1.4.4 / Dynamic Range Meter 1.1.1
log date: 2019-07-28 23:11:57

--------------------------------------------------------------------------------
Analyzed: Tangerine Dream / Phaedra
--------------------------------------------------------------------------------

DR         Peak         RMS     Duration Track
--------------------------------------------------------------------------------
DR10      -0.10 dB   -14.29 dB     17:39 01-Phaedra
DR11      -0.10 dB   -14.34 dB      9:45 02-Mysterious Semblance At The Strand Of Nightmares
DR10      -0.10 dB   -14.88 dB      7:58 03-Movements Of A Visionary
DR9       -3.26 dB   -18.38 dB      2:19 04-Sequent C'
DR10      -0.07 dB   -14.36 dB     17:44 05-Phaedra (Steven Wilson Remix)
DR10      -6.16 dB   -20.48 dB      2:22 06-Sequent C' (Steven Wilson Remix)
--------------------------------------------------------------------------------

Number of tracks:  6
Official DR value: DR10

Samplerate:        96000 Hz
Channels:          2
Bits per sample:   24
Bitrate:           1970 kbps
Codec:             FLAC
================================================================================


foobar2000 1.4.4 / Dynamic Range Meter 1.1.1
log date: 2019-07-28 23:11:35

--------------------------------------------------------------------------------
Analyzed: Tangerine Dream / Phaedra
--------------------------------------------------------------------------------

DR         Peak         RMS     Duration Track
--------------------------------------------------------------------------------
DR13      -0.07 dB   -19.04 dB     17:37 01-Phaedra
DR12      -1.31 dB   -20.82 dB      9:44 02-Mysterious Semblance At The Strand Of Nightmares
DR11      -2.21 dB   -20.52 dB      7:59 03-Movements Of A Visionary
DR9       -3.64 dB   -22.27 dB      2:22 04-Sequent C'
--------------------------------------------------------------------------------

Number of tracks:  4
Official DR value: DR11

Samplerate:        96000 Hz
Channels:          6
Bits per sample:   24
Bitrate:           4585 kbps
Codec:             FLAC
================================================================================


foobar2000 1.4.4 / Dynamic Range Meter 1.1.1
log date: 2019-07-28 23:10:59

--------------------------------------------------------------------------------
Analyzed: Tangerine Dream / Oedipus Tyrannus
--------------------------------------------------------------------------------

DR         Peak         RMS     Duration Track
--------------------------------------------------------------------------------
DR11      -0.88 dB   -15.72 dB     11:01 01-Overture
DR12      -1.00 dB   -18.11 dB     16:45 02-Act 1
DR10      -0.20 dB   -12.88 dB     10:10 03-Act 2. Battle
DR12      -4.34 dB   -20.14 dB      8:55 04-Act 2. Baroque
DR11      -4.31 dB   -20.29 dB      5:44 05-Act 2. Zeus
DR11      -0.20 dB   -14.58 dB     22:08 06-Act 3
--------------------------------------------------------------------------------

Number of tracks:  6
Official DR value: DR11

Samplerate:        96000 Hz
Channels:          2
Bits per sample:   24
Bitrate:           2719 kbps
Codec:             FLAC
================================================================================


foobar2000 1.4.4 / Dynamic Range Meter 1.1.1
log date: 2019-07-28 23:10:34

--------------------------------------------------------------------------------
Analyzed: Tangerine Dream / Oedipus Tyrannus
--------------------------------------------------------------------------------

DR         Peak         RMS     Duration Track
--------------------------------------------------------------------------------
DR11      -3.20 dB   -21.11 dB     11:00 01-Overture
DR13      -4.03 dB   -24.00 dB     16:45 02-Act 1
DR12      -0.10 dB   -17.06 dB     10:10 03-Act 2. Battle
DR12      -2.80 dB   -24.57 dB      8:55 04-Act 2. Baroque
DR12      -6.66 dB   -24.58 dB      5:44 05-Act 2. Zeus
DR13      -0.10 dB   -19.15 dB     22:09 06-Act 3
--------------------------------------------------------------------------------

Number of tracks:  6
Official DR value: DR12

Samplerate:        96000 Hz
Channels:          6
Bits per sample:   24
Bitrate:           6142 kbps
Codec:             FLAC
================================================================================




Create a new paste based on this one


Comments: