[ create a new paste ] login | about

Link: http://codepad.org/ggxYzRYi    [ raw code | fork ]

Plain Text, pasted on Nov 25:
[CUETools log; Date: 11/25/2016 6:45:49 AM; Version: 2.1.5]
[CTDB TOCID: IsAAuMJkKZ93eNbeXxxIBk1rdBE-] found.
Track | CTDB Status
  1   | (50/50) Accurately ripped
  2   | (50/50) Accurately ripped
  3   | (50/50) Accurately ripped
  4   | (50/50) Accurately ripped
  5   | (50/50) Accurately ripped
  6   | (50/50) Accurately ripped
  7   | (50/50) Accurately ripped
  8   | (50/50) Accurately ripped
[AccurateRip ID: 000cb5e8-00536045-5e095908] found.
Track   [  CRC   |   V2   ] Status
 01     [fc2a891c|7a0c0fd5] (16+45/61) Accurately ripped
 02     [a19e4aa2|8612f2b0] (16+45/61) Accurately ripped
 03     [4b8bd997|8f04d595] (16+45/61) Accurately ripped
 04     [0463e74c|c1715f56] (16+45/61) Accurately ripped
 05     [487fef38|2cd53f5a] (16+46/62) Accurately ripped
 06     [02b09840|7c462937] (16+45/61) Accurately ripped
 07     [e8684430|a6998665] (16+45/61) Accurately ripped
 08     [7ded97b7|8b128029] (16+46/62) Accurately ripped
Offsetted by -30:
 01     [c534cb16] (00/61) No match (V2 was not tested)
 02     [8afbabce] (00/61) No match (V2 was not tested)
 03     [bd0e4d65] (00/61) No match (V2 was not tested)
 04     [d40da3d0] (00/61) No match (V2 was not tested)
 05     [68cbe844] (00/62) No match (V2 was not tested)
 06     [3fb81e62] (00/61) No match (V2 was not tested)
 07     [bb4d3bde] (00/61) No match (V2 was not tested)
 08     [1905e552] (00/62) No match (V2 was not tested)

Track Peak [ CRC32  ] [W/O NULL] [  LOG   ]
 --  100.0 [030F4360] [DF51F03F]   CRC32   
 01   95.2 [CBB62BFA] [16C0C20B]           
 02   96.9 [604BFB77] [9C5CA8BA]           
 03   97.5 [0A518C7B] [8AD52DAD]           
 04   94.5 [376A1675] [BC3E74E1]           
 05   97.2 [D6D7FD24] [3CC6FB49]           
 06   97.6 [B551C364] [AC12C5FD]           
 07   94.7 [88733785] [75663F15]           
 08  100.0 [26B35FD0] [E22F1838]           



Create a new paste based on this one


Comments: