[ create a new paste ] login | about

Link: http://codepad.org/glL3z5Vb    [ raw code | fork ]

Plain Text, pasted on Jul 6:
foobar2000 1.1.8 / Dynamic Range Meter 1.1.1
log date: 2011-12-10 12:45:18

--------------------------------------------------------------------------------
Analyzed: Stevie Wonder / Innervisions (2011 SHM-SACD)
--------------------------------------------------------------------------------

DR         Peak         RMS     Duration Track
--------------------------------------------------------------------------------
DR12      -1.74 dB   -15.72 dB      4:37 01-Too High
DR11      -4.20 dB   -17.96 dB      5:24 02-Visions
DR13      -0.01 dB   -16.42 dB      7:23 03-Living For The City
DR12      -2.82 dB   -17.54 dB      5:01 04-Golden Lady
DR13      -0.47 dB   -16.31 dB      3:43 05-Higher Ground
DR12      -1.04 dB   -16.15 dB      4:11 06-Jesus Children Of America
DR11      -3.57 dB   -18.42 dB      3:42 07-All In Love Is Fair
DR12      -1.60 dB   -15.89 dB      4:45 08-Don't You Worry 'Bout A Thing
DR12      -2.74 dB   -17.74 dB      5:34 09-He's Misstra Know-It-All
--------------------------------------------------------------------------------

Number of tracks:  9
Official DR value: DR12

Samplerate:        88200 Hz
Channels:          2
Bits per sample:   24
Bitrate:           2739 kbps
Codec:             FLAC
================================================================================




Create a new paste based on this one


Comments: