[ create a new paste ] login | about

Link: http://codepad.org/glw1H4xe    [ raw code | fork ]

Plain Text, pasted on Sep 30:
foobar2000 1.4.6 / Dynamic Range Meter 1.1.1
log date: 2019-09-29 19:00:08

--------------------------------------------------------------------------------
Analyzed: The Beatles / Abbey Road [2019 Apple Records 3x180g Vinyl 50th Anniversary Box Set]
--------------------------------------------------------------------------------

DR         Peak         RMS     Duration Track
--------------------------------------------------------------------------------
DR11      -0.56 dB   -13.83 dB      4:18 01-Come Together
DR10      -1.92 dB   -14.31 dB      3:01 02-Something
DR12      -1.02 dB   -15.68 dB      3:27 03-Maxwell's Silver Hammer
DR10      -0.81 dB   -13.38 dB      3:26 04-Oh! Darling
DR10      -0.41 dB   -13.70 dB      2:50 05-Octopus's Garden
DR9       -1.08 dB   -12.46 dB      7:45 06-I Want You (She's So Heavy)
DR11      -1.75 dB   -14.40 dB      3:05 07-Here Comes The Sun
DR10      -3.13 dB   -15.89 dB      2:45 08-Because
DR12      -2.15 dB   -17.13 dB      4:01 09-You Never Give Me Your Money
DR10      -3.03 dB   -15.26 dB      2:26 10-Sun King
DR12      -1.34 dB   -13.89 dB      1:06 11-Mean Mr. Mustard
DR10      -2.22 dB   -13.14 dB      1:12 12-Polythene Pam
DR10      -0.44 dB   -12.75 dB      1:58 13-She Came In Through The Bathroom Window
DR11      -1.03 dB   -16.07 dB      1:31 14-Golden Slumbers
DR11      -1.48 dB   -13.27 dB      1:36 15-Carry That Weight
DR10      -1.82 dB   -14.84 dB      2:21 16-The End
DR9       -3.59 dB   -20.09 dB      0:26 17-Her Majesty
DR11      -0.77 dB   -15.11 dB      6:56 18-I Want You (She's So Heavy) [Trident Recording Session & Reduction Mix]
DR9       -5.70 dB   -16.37 dB      2:23 19-Goodbye [Home Demo]
DR10      -5.78 dB   -19.07 dB      3:36 20-Something [Studio Demo]
DR13      -2.68 dB   -17.96 dB      3:36 21-The Ballad Of John And Yoko [Take 7]
DR12      -2.85 dB   -17.00 dB      3:15 22-Old Brown Shoe [Take 2]
DR11      -2.42 dB   -15.56 dB      3:30 23-Oh! Darling [Take 4]
DR13      -2.25 dB   -18.79 dB      1:42 24-Octopus's Garden [Take 9]
DR13      -1.37 dB   -17.08 dB      5:17 25-You Never Give Me Your Money [Take 36]
DR10      -7.18 dB   -20.05 dB      1:33 26-Her Majesty [Takes 1-3]
DR12      -1.98 dB   -18.64 dB      3:20 27-Golden Slumbers / Carry That Weight [Takes 1-3]
DR11      -0.41 dB   -15.31 dB      3:40 28-Here Comes The Sun [Take 9]
DR14      -0.83 dB   -18.07 dB      4:43 29-Maxwell's Silver Hammer [Take 12]
DR14      -1.02 dB   -18.02 dB      3:28 30-Come Together [Take 5]
DR11      -0.83 dB   -15.47 dB      2:11 31-The End [Take 3]
DR9       -3.97 dB   -14.80 dB      2:42 32-Come And Get It [Studio Demo]
DR12      -2.97 dB   -18.65 dB      3:13 33-Sun King [Take 20]
DR12      -0.40 dB   -16.61 dB      1:34 34-Mean Mr. Mustard [Take 20]
DR11      -2.08 dB   -15.21 dB      1:39 35-Polythene Pam [Take 27]
DR11      -1.86 dB   -15.10 dB      2:06 36-She Came In Through The Bathroom Window [Take 27]
DR11      -5.31 dB   -19.80 dB      3:08 37-Because [Take 1 Instrumental]
DR11      -0.40 dB   -15.05 dB     16:05 38-The Long One [Trial Edit & Mix 30 July 1969]
DR9       -2.50 dB   -14.55 dB      2:41 39-Something [Take 39 Instrumental - Strings Only]
DR9       -0.85 dB   -12.01 dB      3:18 40-Golden Slumbers / Carry That Weight [Mono Instrumental - Strings & Brass Only]
--------------------------------------------------------------------------------

Number of tracks:  40
Official DR value: DR11

Samplerate:        44100 Hz
Channels:          2
Bits per sample:   16
Bitrate:           438 kbps
Codec:             FLAC
================================================================================




Create a new paste based on this one


Comments: