[ create a new paste ] login | about

Link: http://codepad.org/glxCwXD4    [ raw code | fork ]

Plain Text, pasted on May 21:
Exact Audio Copy V1.1 from 23. June 2015

EAC extraction logfile from 14. May 2016, 21:08

Various Artists / Ultimate Rock 'N' Roll Love Songs (CD 2)

Used drive  : hp      CDDVDW SH-216BB   Adapter: 1  ID: 0

Read mode               : Secure
Utilize accurate stream : Yes
Defeat audio cache      : Yes
Make use of C2 pointers : No

Read offset correction                      : 6
Overread into Lead-In and Lead-Out          : No
Fill up missing offset samples with silence : Yes
Delete leading and trailing silent blocks   : No
Null samples used in CRC calculations       : Yes
Used interface                              : Native Win32 interface for Win NT & 2000

Used output format : Internal WAV Routines
Sample format      : 44.100 Hz; 16 Bit; Stereo


TOC of the extracted CD

     Track |   Start  |  Length  | Start sector | End sector 
    ---------------------------------------------------------
        1  |  0:00.00 |  3:00.64 |         0    |    13563   
        2  |  3:00.64 |  2:28.28 |     13564    |    24691   
        3  |  5:29.17 |  2:23.45 |     24692    |    35461   
        4  |  7:52.62 |  2:18.23 |     35462    |    45834   
        5  | 10:11.10 |  2:35.17 |     45835    |    57476   
        6  | 12:46.27 |  2:08.37 |     57477    |    67113   
        7  | 14:54.64 |  2:23.59 |     67114    |    77897   
        8  | 17:18.48 |  2:14.40 |     77898    |    87987   
        9  | 19:33.13 |  2:16.35 |     87988    |    98222   
       10  | 21:49.48 |  2:10.05 |     98223    |   107977   
       11  | 23:59.53 |  2:25.02 |    107978    |   118854   
       12  | 26:24.55 |  2:19.12 |    118855    |   129291   
       13  | 28:43.67 |  1:54.65 |    129292    |   137906   
       14  | 30:38.57 |  2:02.31 |    137907    |   147087   
       15  | 32:41.13 |  2:32.44 |    147088    |   158531   
       16  | 35:13.57 |  2:42.10 |    158532    |   170691   
       17  | 37:55.67 |  2:18.13 |    170692    |   181054   
       18  | 40:14.05 |  2:43.31 |    181055    |   193310   
       19  | 42:57.36 |  2:37.22 |    193311    |   205107   
       20  | 45:34.58 |  2:23.40 |    205108    |   215872   
       21  | 47:58.23 |  2:15.10 |    215873    |   226007   
       22  | 50:13.33 |  2:40.59 |    226008    |   238066   
       23  | 52:54.17 |  2:38.05 |    238067    |   249921   
       24  | 55:32.22 |  2:25.05 |    249922    |   260801   
       25  | 57:57.27 |  2:39.24 |    260802    |   272750   


Range status and errors

Selected range

     Filename C:\Users\Arturs\Desktop\Various Artists - Ultimate Rock 'N' Roll Love Songs (CD 2).wav

     Peak level 99.9 %
     Extraction speed 3.1 X
     Range quality 100.0 %
     Test CRC 63D259CE
     Copy CRC 63D259CE
     Copy OK

No errors occurred

 
AccurateRip summary
 
Track  1  accurately ripped (confidence 1)  [11759D39]  (AR v2)
Track  2  accurately ripped (confidence 1)  [9EED3667]  (AR v2)
Track  3  accurately ripped (confidence 1)  [8E943CC0]  (AR v2)
Track  4  accurately ripped (confidence 1)  [6725D268]  (AR v2)
Track  5  accurately ripped (confidence 1)  [93BB82F5]  (AR v2)
Track  6  accurately ripped (confidence 1)  [7EAF55CF]  (AR v2)
Track  7  accurately ripped (confidence 1)  [28152F62]  (AR v2)
Track  8  accurately ripped (confidence 1)  [32E88F07]  (AR v2)
Track  9  accurately ripped (confidence 1)  [4ED4DC0D]  (AR v2)
Track 10  accurately ripped (confidence 1)  [463992E3]  (AR v2)
Track 11  accurately ripped (confidence 1)  [91777EBD]  (AR v2)
Track 12  accurately ripped (confidence 1)  [B3751151]  (AR v2)
Track 13  accurately ripped (confidence 1)  [E1529AE3]  (AR v2)
Track 14  accurately ripped (confidence 1)  [E3438949]  (AR v2)
Track 15  accurately ripped (confidence 1)  [99FBB6A0]  (AR v2)
Track 16  accurately ripped (confidence 1)  [22A579C2]  (AR v2)
Track 17  accurately ripped (confidence 1)  [71BA21E2]  (AR v2)
Track 18  accurately ripped (confidence 1)  [6861C356]  (AR v2)
Track 19  accurately ripped (confidence 1)  [EDCFC398]  (AR v2)
Track 20  accurately ripped (confidence 1)  [E98E7B4D]  (AR v2)
Track 21  accurately ripped (confidence 1)  [6513265C]  (AR v2)
Track 22  accurately ripped (confidence 1)  [20670D4F]  (AR v2)
Track 23  accurately ripped (confidence 1)  [38C79287]  (AR v2)
Track 24  accurately ripped (confidence 1)  [C0E31B0E]  (AR v2)
Track 25  accurately ripped (confidence 1)  [B9703EAD]  (AR v2)
 
All tracks accurately ripped

End of status report

---- CUETools DB Plugin V2.1.6

[CTDB TOCID: .0gGvQGsRM_66ztNdlABHiECXmE-] found
Submit result: .0gGvQGsRM_66ztNdlABHiECXmE- has been confirmed
Track | CTDB Status
  1   | (2/2) Accurately ripped
  2   | (2/2) Accurately ripped
  3   | (2/2) Accurately ripped
  4   | (2/2) Accurately ripped
  5   | (2/2) Accurately ripped
  6   | (2/2) Accurately ripped
  7   | (2/2) Accurately ripped
  8   | (2/2) Accurately ripped
  9   | (2/2) Accurately ripped
 10   | (2/2) Accurately ripped
 11   | (2/2) Accurately ripped
 12   | (2/2) Accurately ripped
 13   | (2/2) Accurately ripped
 14   | (2/2) Accurately ripped
 15   | (2/2) Accurately ripped
 16   | (2/2) Accurately ripped
 17   | (2/2) Accurately ripped
 18   | (2/2) Accurately ripped
 19   | (2/2) Accurately ripped
 20   | (2/2) Accurately ripped
 21   | (2/2) Accurately ripped
 22   | (2/2) Accurately ripped
 23   | (2/2) Accurately ripped
 24   | (2/2) Accurately ripped
 25   | (2/2) Accurately ripped


==== Log checksum B1D3A87731B3695797643EA476A7BE2E9A4153A4552254F9504729CD10E48803 ====



Create a new paste based on this one


Comments: