[ create a new paste ] login | about

Link: http://codepad.org/go2octeV    [ raw code | fork ]

Plain Text, pasted on Apr 29:
foobar2000 1.2.2 / Dynamic Range Meter 1.1.1
log date: 2013-04-24 08:57:15

--------------------------------------------------------------------------------
Analyzed: Frank Sinatra / No One Cares (2013 MFSL Hybrid SACD)
--------------------------------------------------------------------------------

DR         Peak         RMS     Duration Track
--------------------------------------------------------------------------------
DR12      -1.75 dB   -18.72 dB      2:44 01-When No One Cares
DR12      -0.66 dB   -19.23 dB      3:19 02-A Cottage For Sale
DR12      -0.19 dB   -17.87 dB      3:23 03-Stormy Weather
DR11      -0.80 dB   -18.11 dB      2:35 04-Where Do You Go?
DR12      -1.27 dB   -17.39 dB      3:19 05-I Don't Stand A Ghost Of A Chance With You
DR12      -1.79 dB   -19.17 dB      3:37 06-Here's That Rainy Day
DR12      -0.41 dB   -17.75 dB      4:03 07-I Can't Get Started
DR12      -1.30 dB   -18.03 dB      3:44 08-Why Try To Change Me Now?
DR13      -0.99 dB   -18.57 dB      3:42 09-Just Friends
DR10      -1.26 dB   -16.67 dB      3:48 10-I'll Never Smile Again
DR11      -0.31 dB   -17.83 dB      3:44 11-None But The Lonely Heart
--------------------------------------------------------------------------------

Number of tracks:  11
Official DR value: DR12

Samplerate:        88200 Hz
Channels:          2
Bits per sample:   24
Bitrate:           2690 kbps
Codec:             FLAC
================================================================================




Create a new paste based on this one


Comments: