[ create a new paste ] login | about

Link: http://codepad.org/grFfleK9    [ raw code | fork ]

Plain Text, pasted on May 24:
foobar2000 1.3.15 / Dynamic Range Meter 1.1.1
log date: 2017-05-23 14:26:04

--------------------------------------------------------------------------------
Analyzed: Buddy Rich / The Greatest Drummer That Ever Lived With...The Best Band I Ever Had
--------------------------------------------------------------------------------

DR         Peak         RMS     Duration Track
--------------------------------------------------------------------------------
DR14      -1.10 dB   -19.08 dB      6:46 01-Birdland
DR15      -0.07 dB   -19.32 dB      5:55 02-Bouncin' With Bud
DR13      -1.23 dB   -18.18 dB      6:17 03-Cape Verdean Blues
DR13      -0.68 dB   -18.36 dB      6:23 04-Fiesta
DR13      -0.20 dB   -16.45 dB      4:32 05-Funk City Ola
--------------------------------------------------------------------------------

Number of tracks:  5
Official DR value: DR14

Samplerate:        44100 Hz
Channels:          2
Bits per sample:   16
Bitrate:           902 kbps
Codec:             FLAC
================================================================================




Create a new paste based on this one


Comments: